* Dettagli Torrent   globale  | Commenti (0) 


- Romeo x Juliet - Ep13-24 [XviD - Ita Jap - Mp3] [Tntvillage] -


Download via torrent:
                 
Categoria bittorrent Anime
Descrizione
Romeo x Juliet - Ep13-24 [XviD - Ita Jap - Mp3] [Tntvillage]




by PittaSk8

Romeo×Juliet è una serie animata basata sull\'opera drammatica di William Shakespeare, intitolata Romeo e Giulietta, portando numerose citazioni dell\'opera dell\'inglese con un cameo dello stesso autore. Durante la serie vi saranno anche altre citazioni sempre di sue opere. L\'anime è apparso negli schermi televisivi giapponesi da aprile 2007 grazie al canale Chubu-Nippon Broadcasting, e successivamente su Tokyo Broadcasting System, Kyoto Broadcasting System e SUN-TV. La serie è finita nel 2007 con 24 episodi.




La storia si incentra sull\'amore proibito fra Giulietta e Romeo ostacolata dai loro stessi destini: lui è il figlio del Gran Duca di Neo Verona che prese il potere sulla città uccidendo il precedente Duca, Capuleti, e tutta la sua casata. Lei è proprio la figlia di Capuleti scampata alla strage, colei che dovrà riprendere il potere per porre fine alle angherie che il popolo subisce in continuazione a causa del tiranno







13. Il Battito Vitale
Guidati

14. La Sfida
Grandi responsabilità - Tra queste braccia

15. L\'Alba dei Cambiamenti
Se stessi - La via da intraprendere

16. Lontano dall\'Amat
Sola - Amato

17. Il Passato Sepolto
Tiranno - L\' oscuro passato

18. Volontà
Motivazione - Nei loro cuori

19. Il Vento della Speranza
Eredità - Lo farò io

20. Tenuti al Dovere
Missione - Un passo saldo

21. Da Morire
Legge - L\' abbraccio della Dea

22. La Fine della Rivoluzione
Maledizione - Passione devastante

23. Per il mio Amore
Germogliare - Il bacio della morte

24. Un Nuovo Mondo
Supplica - Un mondo in cui ci sei anche tu


Sigle finali
Cyclone
Cantata da: 12012
Musica: Wataru Miyawaki
Testo : Hiroaki Sakai
Arrangiamento: 12012

Good Bye, Yesterday
Cantata da: Mizrock
Testo originale: Sandra Nordstrom, Thomas Wohni
Arrangiamento: Tomoki Ishizuka


 
 


Complete name : Romeo X Juliet - 18 - Motivazione - Nei loro cuori [PittaSk8].avi
Format : AVI
Format/Info : Audio Video Interleave
File size : 352 MiB
Duration : 23mn 58s
Overall bit rate : 2 051 Kbps

Video
ID : 0
Format : MPEG-4 Visual
Format profile : Advanced Simple@L5
Format settings, BVOP : Yes
Format settings, QPel : No
Format settings, GMC : No warppoints
Format settings, Matrix : Default (H.263)
Codec ID : XVID
Codec ID/Hint : XviD
Duration : 23mn 58s
Bit rate : 1 781 Kbps
Width : 704 pixels
Height : 396 pixels
Display aspect ratio : 16:9
Frame rate : 25.000 fps
Resolution : 8 bits
Colorimetry : 4:2:0
Scan type : Progressive
Bits/(Pixel*Frame) : 0.255
Stream size : 305 MiB (87%)
Writing library : xvid0037

Audio #1
ID : 1
Format : MPEG Audio
Format version : Version 1
Format profile : Layer 3
Format_Settings_Mode : Joint stereo / MS Stereo
Codec ID : 55
Codec ID/Hint : MP3
Duration : 23mn 58s
Bit rate mode : Constant
Bit rate : 128 Kbps
Channel(s) : 2 channels
Sampling rate : 48.0 KHz
Stream size : 22.0 MiB (6%)
Alignment : Split accross interleaves
Interleave, duration : 40 ms (1.00 video frame)
Interleave, preload duration : 500 ms

Audio #2
ID : 2
Format : MPEG Audio
Format version : Version 1
Format profile : Layer 3
Format_Settings_Mode : Joint stereo / MS Stereo
Codec ID : 55
Codec ID/Hint : MP3
Duration : 23mn 58s
Bit rate mode : Constant
Bit rate : 128 Kbps
Channel(s) : 2 channels
Sampling rate : 44.1 KHz
Stream size : 22.0 MiB (6%)
Alignment : Split accross interleaves
Interleave, duration : 40 ms (1.00 video frame)
Interleave, preload duration : 500 ms

Visit http://www.tntvillage.scambioetico.org/
Info: Per scaricare devi usare un client come uTorrent, o Azureus
AnnounceURL
http://tracker.tntvillage.scambioetico.org:2710/announce
Hash fe6330e631f4e8e109e2ef5064bbeba5da70da9f
Peers seeds: 12 , leech: 29
Size 4.20 GB
Completato 221x
Aggiunto 24.04.10 - 09:04:10
Uploader   darayava
Votazione (Voti: 0)


Condividi questo bittorrent:


html/blog:


bbcode/forum:


Tramite bookmarks:



Aggiungi Commento