* Dettagli Torrent   globale  | Commenti (0) 


- [BDRip 1080p ITA ENG-DTS AC3-SUB] 9 (2009)-aKTiVia -


Download via torrent:
                 
Categoria bittorrent DVD
Descrizione


Titolo Originale: 9
Nazionalita : USA
Anno : 2009
Genere : Animazione
Durata : 80
Regia : Shane Acker



Video Bitrate: 13 Mbps

General
Complete name                    : /[BDRip 1080p ITA ENG-DTS AC3-SUB] 9 (2009)-aKTiVia.mkv
Format                           : Matroska
File size                        : 8.26 GiB
Duration                         : 1h 19mn
Overall bit rate                 : 14.9 Mbps
Movie name                       : ~ LiFE ~
Encoded date                     : UTC 2010-05-08 14:48:06
Writing application              : mkvmerge v3.0.0 (\'Hang up your Hang-Ups\') built on Dec 12 2009 19:05:48
Writing library                  : libebml v0.7.7 + libmatroska v0.8.1

Video
ID                               : 1
Format                           : AVC
Format/Info                      : Advanced Video Codec
Format profile                   : High@L5.1
Format settings, CABAC           : Yes
Format settings, ReFrames        : 16 frames
Muxing mode                      : Container profile=Unknown@5.1
Codec ID                         : V_MPEG4/ISO/AVC
Duration                         : 1h 19mn
Bit rate                         : 12.6 Mbps
Nominal bit rate                 : 12.9 Mbps
Width                            : 1 920 pixels
Height                           : 1 080 pixels
Display aspect ratio             : 16:9
Frame rate                       : 23.976 fps
Resolution                       : 24 bits
Colorimetry                      : 4:2:0
Scan type                        : Progressive
Bits/(Pixel*Frame)               : 0.253
Stream size                      : 6.96 GiB (84%)
Writing library                  : x264 core 68 r1183M f21daff
Encoding settings                : cabac=1 / ref=16 / deblock=1:-3:-3 / analyse=0x3:0x133 / me=umh /
subme=9 / psy_rd=0.8:0.2 / mixed_ref=1 / me_range=32 / chroma_me=1 / trellis=2 / 8x8dct=1 / cqm=0 /
deadzone=21,11 / chroma_qp_offset=-3 / threads=6 / nr=0 / decimate=0 / mbaff=0 / bframes=4
/ b_pyramid=1 / b_adapt=2 / b_bias=0 / direct=3 / wpredb=1 / keyint=250 / keyint_min=25 /
scenecut=40 / rc=2pass / bitrate=12870 / ratetol=1.0 / qcomp=0.60 / qpmin=10 / qpmax=51 /
qpstep=4 / cplxblur=20.0 / qblur=0.5 / ip_ratio=1.40 / pb_ratio=1.30 / aq=1:1.00

Audio #1
ID                               : 2
Format                           : AC-3
Format/Info                      : Audio Coding 3
Codec ID                         : A_AC3
Duration                         : 1h 19mn
Bit rate mode                    : Constant
Bit rate                         : 640 Kbps
Channel(s)                       : 6 channels
Channel positions                : Front: L C R, Surround: L R, LFE
Sampling rate                    : 48.0 KHz
Video delay                      : 24ms
Stream size                      : 363 MiB (4%)
Language                         : Italian

Audio #2
ID                               : 3
Format                           : DTS
Format/Info                      : Digital Theater Systems
Codec ID                         : A_DTS
Duration                         : 1h 19mn
Bit rate mode                    : Constant
Bit rate                         : 754 Kbps
Channel(s)                       : 6 channels
Channel positions                : Front: L C R, Surround: L R, LFE
Sampling rate                    : 48.0 KHz
Resolution                       : 24 bits
Video delay                      : 3ms
Stream size                      : 428 MiB (5%)
Title                            : dts
Language                         : Italian

Audio #3
ID                               : 4
Format                           : AC-3
Format/Info                      : Audio Coding 3
Codec ID                         : A_AC3
Duration                         : 1h 19mn
Bit rate mode                    : Constant
Bit rate                         : 640 Kbps
Channel(s)                       : 6 channels
Channel positions                : Front: L C R, Surround: L R, LFE
Sampling rate                    : 48.0 KHz
Stream size                      : 363 MiB (4%)
Language                         : English

Text #1
ID                               : 5
Format                           : UTF-8
Codec ID                         : S_TEXT/UTF8
Codec ID/Info                    : UTF-8 Plain Text
Title                            : Forced
Language                         : Italian

Text #2
ID                               : 6
Format                           : UTF-8
Codec ID                         : S_TEXT/UTF8
Codec ID/Info                    : UTF-8 Plain Text
Language                         : Italian

Text #3
ID                               : 7
Format                           : ASS
Codec ID                         : S_TEXT/ASS
Codec ID/Info                    : Advanced Sub Station Alpha
Language                         : English
Info: Per scaricare devi usare un client come uTorrent, o Azureus
AnnounceURL
http://tracker.token.ro/announce
Hash 2fcd9286b907cc26389a2509e23210c58561fbc6
Peers seeds: 8 , leech: 76
Size 8.26 GB
Completato 10x
Aggiunto 08.05.10 - 17:05:55
Uploader   ultimafrontiera
Votazione (Voti: 0)


Condividi questo bittorrent:


html/blog:


bbcode/forum:


Tramite bookmarks:



Aggiungi Commento