* Dettagli Torrent   globale  | Commenti (0) 


- [BDRip 720p ITA ENG-AC3-SUB] Il Quarto Tipo (2009)-LiFE -


Download via torrent:
                 
Categoria bittorrent DVD
Descrizione


Titolo Originale: The Fourth Kind
Nazionalita : U.S.A.
Anno : 2009
Genere : Thriller, Horror
Durata : 96
Regia : Olatunde Osunsanmi

eneral
Complete name                    : /[BDRip 720p ITA ENG-AC3-SUB] Il Quarto Tipo (2009)-LiFE.mkv
Format                           : Matroska
File size                        : 6.16 GiB
Duration                         : 1h 33mn
Overall bit rate                 : 9 377 Kbps
Movie name                       : ~ LiFE ~
Encoded date                     : UTC 2010-05-14 21:58:21
Writing application              : mkvmerge v3.0.0 (\'Hang up your Hang-Ups\') built on Dec 12 2009 19:05:48
Writing library                  : libebml v0.7.7 + libmatroska v0.8.1

Video
ID                               : 1
Format                           : AVC
Format/Info                      : Advanced Video Codec
Format profile                   : High@L4.1
Format settings, CABAC           : Yes
Format settings, ReFrames        : 11 frames
Muxing mode                      : Container profile=Unknown@4.1
Codec ID                         : V_MPEG4/ISO/AVC
Duration                         : 1h 33mn
Bit rate                         : 8 102 Kbps
Nominal bit rate                 : 7 960 Kbps
Width                            : 1 280 pixels
Height                           : 544 pixels
Display aspect ratio             : 2.35:1
Frame rate                       : 25.000 fps
Original frame rate              : 23.976 fps
Resolution                       : 24 bits
Colorimetry                      : 4:2:0
Scan type                        : Progressive
Bits/(Pixel*Frame)               : 0.465
Stream size                      : 5.32 GiB (86%)
Writing library                  : x264 core 88 r1471 1144615
Encoding settings                : cabac=1 / ref=11 / deblock=1:-3:-3 / analyse=0x3:0x133 / me=umh /
subme=10 / psy=1 / psy_rd=1.00:0.00 / mixed_ref=1 / me_range=24 / chroma_me=1 / trellis=2 /
8x8dct=1 / cqm=0 / deadzone=21,11 / fast_pskip=1 / chroma_qp_offset=-2 / threads=6 /
sliced_threads=0 / nr=0 / decimate=1 / mbaff=0 / constrained_intra=0 / bframes=6 / b_pyramid=2 /
b_adapt=2 / b_bias=0 / direct=3 / wpredb=1 / wpredp=2 / keyint=250 / keyint_min=25 /
scenecut=40 / intra_refresh=0 / rc_lookahead=40 / rc=2pass / mbtree=1 / bitrate=7960 /
ratetol=1.0 / qcomp=0.60 / qpmin=10 / qpmax=51 / qpstep=4 / cplxblur=20.0 / qblur=0.5 /
ip_ratio=1.40 / aq=2:1.00

Audio #1
ID                               : 2
Format                           : AC-3
Format/Info                      : Audio Coding 3
Codec ID                         : A_AC3
Duration                         : 1h 33mn
Bit rate mode                    : Constant
Bit rate                         : 448 Kbps
Channel(s)                       : 6 channels
Channel positions                : Front: L C R, Surround: L R, LFE
Sampling rate                    : 48.0 KHz
Video delay                      : 8s 800ms
Stream size                      : 301 MiB (5%)
Language                         : Italian

Audio #2
ID                               : 3
Format                           : AC-3
Format/Info                      : Audio Coding 3
Codec ID                         : A_AC3
Duration                         : 1h 33mn
Bit rate mode                    : Constant
Bit rate                         : 640 Kbps
Channel(s)                       : 6 channels
Channel positions                : Front: L C R, Surround: L R, LFE
Sampling rate                    : 48.0 KHz
Stream size                      : 430 MiB (7%)
Language                         : English

Text #1
ID                               : 4
Format                           : UTF-8
Codec ID                         : S_TEXT/UTF8
Codec ID/Info                    : UTF-8 Plain Text
Title                            : Forced
Language                         : Italian

Text #2
ID                               : 5
Format                           : UTF-8
Codec ID                         : S_TEXT/UTF8
Codec ID/Info                    : UTF-8 Plain Text
Language                         : Italian

Text #3
ID                               : 6
Format                           : ASS
Codec ID                         : S_TEXT/ASS
Codec ID/Info                    : Advanced Sub Station Alpha
Language                         : English

Menu
00:00:00.000                     : en:00:00:00.000
00:01:42.227                     : en:00:01:42.227
00:08:16.705                     : en:00:08:16.705
00:13:53.207                     : en:00:13:53.207
00:19:54.777                     : en:00:19:54.777
00:24:25.297                     : en:00:24:25.297
00:28:32.961                     : en:00:28:32.961
00:33:37.474                     : en:00:33:37.474
00:36:56.756                     : en:00:36:56.756
00:43:03.498                     : en:00:43:03.498
00:47:29.680                     : en:00:47:29.680
00:52:42.576                     : en:00:52:42.576
00:56:45.444                     : en:00:56:45.444
01:01:00.782                     : en:01:01:00.782
01:05:16.454                     : en:01:05:16.454
01:09:48.351                     : en:01:09:48.351
01:14:15.242                     : en:01:14:15.242
01:20:38.375                     : en:01:20:38.375
01:27:30.537                     : en:01:27:30.537
01:32:21.369                     : en:01:32:21.369

Info: Per scaricare devi usare un client come uTorrent, o Azureus
AnnounceURL
http://fr33dom.h33t.com:3310/announce
Hash bc297cd231d2e5706c8a34363fb5a7240c79fb25
Peers seeds: 7 , leech: 93
Size 6.16 GB
Completato 27x
Aggiunto 15.05.10 - 00:05:56
Uploader   ultimafrontiera
Votazione (Voti: 0)


Condividi questo bittorrent:


html/blog:


bbcode/forum:


Tramite bookmarks:



Aggiungi Commento