* Dettagli Torrent   globale  | Commenti (0) 


- [BDRip 720p ITA ENG-AC3-SUB] Il Richiamo della Foresta-LiFE -


Download via torrent:
                 
Categoria bittorrent DVD
Descrizione


Titolo Originale: Call of the Wild
Nazionalita : USA
Anno : 2009
Genere : Avventura
Durata : 87
Regia : Richard Gabai

General
Complete name                    :/[BDRip 720p ITA ENG-AC3-SUB] Il Richiamo della Foresta-LiFE.mkv
Format                           : Matroska
File size                        : 5.05 GiB
Duration                         : 1h 27mn
Overall bit rate                 : 8 286 Kbps
Movie name                       : ~ LiFE ~
Encoded date                     : UTC 2010-05-16 13:20:17
Writing application              : mkvmerge v3.0.0 (\'Hang up your Hang-Ups\') built on Dec 12 2009 19:05:48
Writing library                  : libebml v0.7.7 + libmatroska v0.8.1

Video
ID                               : 1
Format                           : AVC
Format/Info                      : Advanced Video Codec
Format profile                   : High@L4.1
Format settings, CABAC           : Yes
Format settings, ReFrames        : 3 frames
Muxing mode                      : Container profile=Unknown@4.1
Codec ID                         : V_MPEG4/ISO/AVC
Duration                         : 1h 27mn
Bit rate                         : 5 524 Kbps
Nominal bit rate                 : 5 713 Kbps
Width                            : 1 280 pixels
Height                           : 720 pixels
Display aspect ratio             : 16:9
Frame rate                       : 23.976 fps
Resolution                       : 24 bits
Colorimetry                      : 4:2:0
Scan type                        : Progressive
Bits/(Pixel*Frame)               : 0.250
Stream size                      : 3.36 GiB (67%)
Writing library                  : x264 core 77 r1281M 3836218
Encoding settings                : cabac=1 / ref=3 / deblock=1:0:0 / analyse=0x3:0x12 / me=dia /
subme=2 / psy=1 / psy_rd=0.0:0.0 / mixed_ref=0 / me_range=16 / chroma_me=1 / trellis=0 /
8x8dct=1 / cqm=0 / deadzone=21,11 / chroma_qp_offset=0 / threads=6 / nr=0 / decimate=1 /
mbaff=0 / constrained_intra=0 / bframes=3 / b_pyramid=0 / b_adapt=1 / b_bias=0 / direct=1 /
wpredb=1 / keyint=24 / keyint_min=2 / scenecut=40 / rc_lookahead=28 / rc=cbr / mbtree=0 /
bitrate=5713 / ratetol=1.0 / qcomp=0.50 / qpmin=10 / qpmax=51 / qpstep=4 / vbv_maxrate=25000 /
vbv_bufsize=30000 / ip_ratio=1.10 / pb_ratio=1.10 / aq=1:1.00

Audio #1
ID                               : 2
Format                           : AC-3
Format/Info                      : Audio Coding 3
Codec ID                         : A_AC3
Duration                         : 1h 27mn
Bit rate mode                    : Constant
Bit rate                         : 640 Kbps
Channel(s)                       : 6 channels
Channel positions                : Front: L C R, Surround: L R, LFE
Sampling rate                    : 48.0 KHz
Stream size                      : 399 MiB (8%)
Language                         : Italian

Audio #2
ID                               : 3
Format                           : DTS
Format/Info                      : Digital Theater Systems
Codec ID                         : A_DTS
Duration                         : 1h 27mn
Bit rate mode                    : Constant
Bit rate                         : 1 510 Kbps
Channel(s)                       : 6 channels
Channel positions                : Front: L C R, Surround: L R, LFE
Sampling rate                    : 48.0 KHz
Resolution                       : 16 bits
Stream size                      : 942 MiB (18%)
Title                            : dts
Language                         : Italian

Audio #3
ID                               : 4
Format                           : AC-3
Format/Info                      : Audio Coding 3
Codec ID                         : A_AC3
Duration                         : 1h 27mn
Bit rate mode                    : Constant
Bit rate                         : 448 Kbps
Channel(s)                       : 6 channels
Channel positions                : Front: L C R, Surround: L R, LFE
Sampling rate                    : 48.0 KHz
Video delay                      : 40ms
Stream size                      : 279 MiB (5%)
Language                         : English

Text #1
ID                               : 5
Format                           : UTF-8
Codec ID                         : S_TEXT/UTF8
Codec ID/Info                    : UTF-8 Plain Text

Text #2
ID                               : 6
Format                           : UTF-8
Codec ID                         : S_TEXT/UTF8
Codec ID/Info                    : UTF-8 Plain Text

Text #3
ID                               : 7
Format                           : UTF-8
Codec ID                         : S_TEXT/UTF8
Codec ID/Info                    : UTF-8 Plain Text

Menu
00:00:00.000                     : en:00:00:00.000
00:03:27.165                     : en:00:03:27.165
00:07:58.603                     : en:00:07:58.603
00:12:31.751                     : en:00:12:31.751
00:14:21.444                     : en:00:14:21.444
00:20:15.172                     : en:00:20:15.172
00:26:51.401                     : en:00:26:51.401
00:31:51.118                     : en:00:31:51.118
00:35:18.742                     : en:00:35:18.742
00:42:26.878                     : en:00:42:26.878
00:46:57.356                     : en:00:46:57.356
00:53:22.908                     : en:00:53:22.908
00:56:43.692                     : en:00:56:43.692
01:02:13.188                     : en:01:02:13.188
01:07:32.632                     : en:01:07:32.632
01:09:36.672                     : en:01:09:36.672
01:14:17.328                     : en:01:14:17.328
01:18:02.928                     : en:01:18:02.928
01:19:19.254                     : en:01:19:19.254
01:22:54.761                     : en:01:22:54.761
01:27:38.545                     : en:01:27:38.545
Info: Per scaricare devi usare un client come uTorrent, o Azureus
AnnounceURL
http://fr33dom.h33t.com:3310/announce
Hash 26e82a67021da2dfe53e924da3a4e1344d30ef20
Peers seeds: 8 , leech: 53
Size 5.05 GB
Completato 27x
Aggiunto 16.05.10 - 17:05:12
Uploader   ultimafrontiera
Votazione (Voti: 0)


Condividi questo bittorrent:


html/blog:


bbcode/forum:


Tramite bookmarks:



Aggiungi Commento