* Dettagli Torrent   globale  | Commenti (3) 


- Baciami.Ancora.2010.iTALiAN.PAL.DVDRip-BoBoGinGi -


Download via torrent:
                 
Categoria bittorrent DVDrip
Descrizione


Titolo originale: Baciami ancora
Nazione: Italia
Anno: 2010
Genere: Drammatico
Durata: 138
Regia: Gabriele Muccino
Produzione:

General
Complete name                    : /Baciami.Ancora.2010.iTALiAN.PAL.DVDRip-BoBoGinGi.avi
Format                           : AVI
Format/Info                      : Audio Video Interleave
File size                        : 1.37 GiB
Duration                         : 2h 18mn
Overall bit rate                 : 1 422 Kbps
Movie name                       : BACIAMI_ANCORA.Title1.DVDRip
Writing application              : Lavf52.33.0
Original source form/Name        : BACIAMI_ANCORA

Video
ID                               : 0
Format                           : MPEG-4 Visual
Format profile                   : Simple@L3
Format settings, BVOP            : No
Format settings, QPel            : No
Format settings, GMC             : No warppoints
Format settings, Matrix          : Default (H.263)
Codec ID                         : XVID
Codec ID/Hint                    : XviD
Duration                         : 2h 18mn
Bit rate                         : 1 217 Kbps
Width                            : 640 pixels
Height                           : 272 pixels
Display aspect ratio             : 2.35:1
Frame rate                       : 25.000 fps
Resolution                       : 24 bits
Colorimetry                      : 4:2:0
Scan type                        : Progressive
Bits/(Pixel*Frame)               : 0.280
Stream size                      : 1.18 GiB (86%)
Writing library                  : XviD 1.2.1 (UTC 2008-12-04)

Audio
ID                               : 1
Format                           : MPEG Audio
Format version                   : Version 1
Format profile                   : Layer 3
Format_Settings_Mode             : Joint stereo
Codec ID                         : 55
Codec ID/Hint                    : MP3
Duration                         : 2h 18mn
Bit rate mode                    : Constant
Bit rate                         : 192 Kbps
Channel(s)                       : 2 channels
Sampling rate                    : 48.0 KHz
Resolution                       : 16 bits
Stream size                      : 190 MiB (14%)
Alignment                        : Aligned on interleaves
Interleave, duration             : 24 ms (0.60 video frame)
Info: Per scaricare devi usare un client come uTorrent, o Azureus
AnnounceURL
http://fr33dom.h33t.com:3310/announce
Hash b9ebb43a1d8af045561b35c1c5a58cb377113f4c
Peers seeds: 656 , leech: 1371
Size 1.37 GB
Completato 1410x
Aggiunto 17.05.10 - 22:05:15
Uploader   ultimafrontiera
Votazione (Voti: 0)


Condividi questo bittorrent:


html/blog:


bbcode/forum:


Tramite bookmarks:



Aggiungi Commento
Ultimi commenti
 luca63luca63   
ottimo video 8 audio 8
20/05 10.21
 ultimafrontiera   
no fake con ultimafrontiera, poi scusa ci sono piu di 200 seed
20/05 01.28
 Manub19Manub19   
Posso andare sul sicuro con questo??
Sai com\' ho avuto brutte esperienze di fake con tag un p strani in passato simile a qusto e non vorrei avere brutte sorprese....
18/05 17.32
Tutti commenti (3)