* Dettagli Torrent   globale  | Commenti (0) 


- [BDRip 720p ITA ENG-AC3-SUB] The Last Vampire-Creature del Buio-LiFE -


Download via torrent:
                 
Categoria bittorrent DVD
Descrizione


Titolo Originale: the last vampire - creature nel buio
Nazionalita : Hong Kong
Anno : 2009
Genere : Horror
Durata : 85
Regia : Chris Nahon

Saya è una samurai metà umana e metà vampiro dotata di immensi poteri che attende solo di vendicarsi dei demoni che hanno ucciso suo padre. Ora finalmente l’occasione è arrivata.



General
Complete name                    : [BDRip 720p ITA ENG-AC3-SUB] The Last Vampire-Creature del Buio-LiFE.mkv
Format                           : Matroska
File size                        : 4.07 GiB
Duration                         : 1h 24mn
Overall bit rate                 : 6 858 Kbps
Movie name                       : ~ LiFE~
Encoded date                     : UTC 2010-05-30 15:50:26
Writing application              : mkvmerge v3.0.0 (\'Hang up your Hang-Ups\') built on Dec 12 2009 19:05:48
Writing library                  : libebml v0.7.7 + libmatroska v0.8.1

Video
ID                               : 1
Format                           : AVC
Format/Info                      : Advanced Video Codec
Format profile                   : High@L4.1
Format settings, CABAC           : Yes
Format settings, ReFrames        : 4 frames
Muxing mode                      : Container profile=Unknown@4.1
Codec ID                         : V_MPEG4/ISO/AVC
Duration                         : 1h 25mn
Bit rate                         : 5 634 Kbps
Nominal bit rate                 : 5 534 Kbps
Width                            : 1 280 pixels
Height                           : 546 pixels
Display aspect ratio             : 2.35:1
Frame rate                       : 25.000 fps
Original frame rate              : 23.976 fps
Resolution                       : 24 bits
Colorimetry                      : 4:2:0
Scan type                        : Progressive
Bits/(Pixel*Frame)               : 0.322
Stream size                      : 3.34 GiB (82%)
Title                            : Blood.The.Last.Vampire.2009.BluRay.720p.DTS.x264-CHD
Writing library                  : x264 core 77 r1292M e381f6d
Encoding settings                : cabac=1 / ref=4 / deblock=1:-3:-3 / analyse=0x3:0x113 / me=umh / subme=9 / psy=1 / psy_rd=1.1:0.2 / mixed_ref=1 / me_range=24 / chroma_me=1 / trellis=1 / 8x8dct=1 / cqm=2 / deadzone=21,11 / chroma_qp_offset=-1 / threads=6 / nr=0 / decimate=1 / mbaff=0 / constrained_intra=0 / bframes=3 / b_pyramid=0 / b_adapt=1 / b_bias=0 / direct=3 / wpredb=1 / keyint=250 / keyint_min=25 / scenecut=40 / rc_lookahead=40 / rc=2pass / mbtree=1 / bitrate=5534 / ratetol=1.0 / qcomp=0.60 / qpmin=10 / qpmax=51 / qpstep=4 / cplxblur=20.0 / qblur=0.5 / ip_ratio=1.40 / aq=2:0.60
Language                         : English

Audio #1
ID                               : 2
Format                           : AC-3
Format/Info                      : Audio Coding 3
Codec ID                         : A_AC3
Duration                         : 1h 24mn
Bit rate mode                    : Constant
Bit rate                         : 448 Kbps
Channel(s)                       : 6 channels
Channel positions                : Front: L C R, Surround: L R, LFE
Sampling rate                    : 48.0 KHz
Video delay                      : 24ms
Stream size                      : 272 MiB (7%)
Language                         : Italian

Audio #2
ID                               : 3
Format                           : AC-3
Format/Info                      : Audio Coding 3
Codec ID                         : A_AC3
Duration                         : 1h 24mn
Bit rate mode                    : Constant
Bit rate                         : 640 Kbps
Channel(s)                       : 6 channels
Channel positions                : Front: L C R, Surround: L R, LFE
Sampling rate                    : 48.0 KHz
Stream size                      : 389 MiB (9%)
Language                         : English

Text #1
ID                               : 4
Format                           : UTF-8
Codec ID                         : S_TEXT/UTF8
Codec ID/Info                    : UTF-8 Plain Text
Title                            : Forced
Language                         : Italian

Text #2
ID                               : 5
Format                           : UTF-8
Codec ID                         : S_TEXT/UTF8
Codec ID/Info                    : UTF-8 Plain Text
Language                         : Italian

Text #3
ID                               : 6
Format                           : UTF-8
Codec ID                         : S_TEXT/UTF8
Codec ID/Info                    : UTF-8 Plain Text
Language                         : English

Info: Per scaricare devi usare un client come uTorrent, o Azureus
AnnounceURL
http://fr33dom.h33t.com:3310/announce
Hash 776094702ca48843d97e7c2028283a9166b91970
Peers seeds: 13 , leech: 48
Size 4.07 GB
Completato 74x
Aggiunto 30.05.10 - 17:05:26
Uploader   ultimafrontiera
Votazione (Voti: 1)


Condividi questo bittorrent:


html/blog:


bbcode/forum:


Tramite bookmarks:



Aggiungi Commento