* Dettagli Torrent   globale  | Commenti (0) 


- [BDRip 1080p ITA ENG-AC3 DTS-SUB] Alice in Wonderland-LiFE -


Download via torrent:
                 
Categoria bittorrent DVD
Descrizione


Titolo Originale: Alice in Wonderland
Nazionalita : U.S.A.
Anno : 2010
Genere : Fantastico, Avventura, Animazione
Durata : 110
Regia : Tim Burton



General
Complete name                    ://[BDRip 1080p ITA ENG-AC3 DTS-SUB] Alice in Wonderland-LiFE.mkv
Format                           : Matroska
File size                        : 11.4 GiB
Duration                         : 1h 44mn
Overall bit rate                 : 15.6 Mbps
Movie name                       : ~ LiFE ~
Encoded date                     : UTC 2010-05-31 10:54:36
Writing application              : mkvmerge v3.0.0 (\'Hang up your Hang-Ups\') built on Dec 12 2009 19:05:48
Writing library                  : libebml v0.7.7 + libmatroska v0.8.1

Video
ID                               : 1
Format                           : AVC
Format/Info                      : Advanced Video Codec
Format profile                   : High@L4.1
Format settings, CABAC           : Yes
Format settings, ReFrames        : 4 frames
Muxing mode                      : Container profile=Unknown@4.1
Codec ID                         : V_MPEG4/ISO/AVC
Duration                         : 1h 44mn
Bit rate                         : 13.4 Mbps
Width                            : 1 920 pixels
Height                           : 1 080 pixels
Display aspect ratio             : 16:9
Frame rate                       : 25.000 fps
Original frame rate              : 23.976 fps
Resolution                       : 24 bits
Colorimetry                      : 4:2:0
Scan type                        : Progressive
Bits/(Pixel*Frame)               : 0.259
Stream size                      : 9.76 GiB (86%)
Writing library                  : x264 core 95 r1592 95aacc4
Encoding settings                : cabac=1 / ref=4 / deblock=1:-3:-3 / analyse=0x3:0x133 / me=umh /
subme=10 / psy=1 / psy_rd=1.00:0.00 / mixed_ref=1 / me_range=32 / chroma_me=1 / trellis=2 /
8x8dct=1 / cqm=0 / deadzone=21,11 / fast_pskip=0 / chroma_qp_offset=-2 / threads=6 /
sliced_threads=0 / nr=0 / decimate=1 / interlaced=0 / constrained_intra=0 / bframes=5 /
b_pyramid=2 / b_adapt=2 / b_bias=0 / direct=3 / weightb=1 / weightp=2 / keyint=250 /
keyint_min=25 / scenecut=40 / intra_refresh=0 / rc=crf / mbtree=0 / crf=18.0 / qcomp=0.60 /
qpmin=10 / qpmax=51 / qpstep=4 / ip_ratio=1.40 / pb_ratio=1.30 / aq=1:0.80
Language                         : English

Audio #1
ID                               : 2
Format                           : AC-3
Format/Info                      : Audio Coding 3
Codec ID                         : A_AC3
Duration                         : 1h 44mn
Bit rate mode                    : Constant
Bit rate                         : 384 Kbps
Channel(s)                       : 6 channels
Channel positions                : Front: L C R, Surround: L R, LFE
Sampling rate                    : 48.0 KHz
Video delay                      : 24ms
Stream size                      : 286 MiB (2%)
Language                         : Italian

Audio #2
ID                               : 3
Format                           : DTS
Format/Info                      : Digital Theater Systems
Codec ID                         : A_DTS
Duration                         : 1h 44mn
Bit rate mode                    : Constant
Bit rate                         : 1 510 Kbps
Channel(s)                       : 6 channels
Channel positions                : Front: L C R, Surround: L R, LFE
Sampling rate                    : 48.0 KHz
Resolution                       : 24 bits
Stream size                      : 1.10 GiB (10%)
Title                            : dts
Language                         : English

Text #1
ID                               : 4
Format                           : UTF-8
Codec ID                         : S_TEXT/UTF8
Codec ID/Info                    : UTF-8 Plain Text
Title                            : Forced
Language                         : Italian

Text #2
ID                               : 5
Format                           : UTF-8
Codec ID                         : S_TEXT/UTF8
Codec ID/Info                    : UTF-8 Plain Text
Language                         : Italian

Text #3
ID                               : 6
Format                           : UTF-8
Codec ID                         : S_TEXT/UTF8
Codec ID/Info                    : UTF-8 Plain Text
Language                         : English

Info: Per scaricare devi usare un client come uTorrent, o Azureus
AnnounceURL
http://fr33dom.h33t.com:3310/announce
Hash 0a02de5065ed307b008738b130a09cdfc4517f69
Peers seeds: 32 , leech: 565
Size 11.36 GB
Completato 18x
Aggiunto 31.05.10 - 23:05:40
Uploader   ultimafrontiera
Votazione (Voti: 0)


Condividi questo bittorrent:


html/blog:


bbcode/forum:


Tramite bookmarks:



Aggiungi Commento