* Dettagli Torrent   globale  | Commenti (0) 


- Promemoria.Marco.Travaglio.2009.iTALiAN.DVDRip.XviD-TRL -


Download via torrent:
                 
Categoria bittorrent DVDrip
Descrizione


Titolo originale: 13 anni di storia d\'Italia ai confini della realtà
Nazione: Italia
Anno: 2009
Genere: Documentario
Durata:
Regia:
Produzione: Promo Music

General
Complete name                    : /Promemoria.Marco.Travaglio.2009.iTALiAN.DVDRip.XviD-TRL.CD1.avi
Format                           : AVI
Format/Info                      : Audio Video Interleave
File size                        : 1 000 MiB
Duration                         : 1h 35mn
Overall bit rate                 : 1 457 Kbps
Writing application              : VirtualDubMod 1.5.10.1 (build 2439/release)
Writing library                  : VirtualDubMod build 2439/release

Video
ID                               : 0
Format                           : MPEG-4 Visual
Format profile                   : AdvancedSimple@L5
Format settings, BVOP            : Yes
Format settings, QPel            : No
Format settings, GMC             : No warppoints
Format settings, Matrix          : Default (MPEG)
Codec ID                         : XVID
Codec ID/Hint                    : XviD
Duration                         : 1h 35mn
Bit rate                         : 999 Kbps
Width                            : 560 pixels
Height                           : 304 pixels
Display aspect ratio             : 16:9
Frame rate                       : 25.000 fps
Resolution                       : 24 bits
Colorimetry                      : 4:2:0
Scan type                        : Progressive
Bits/(Pixel*Frame)               : 0.235
Stream size                      : 685 MiB (69%)
Writing library                  : XviD 1.1.0 (UTC 2005-11-22)

Audio
ID                               : 1
Format                           : AC-3
Format/Info                      : Audio Coding 3
Codec ID                         : 2000
Duration                         : 1h 35mn
Bit rate mode                    : Constant
Bit rate                         : 448 Kbps
Channel(s)                       : 6 channels
Channel positions                : Front: L C R, Surround: L R, LFE
Sampling rate                    : 48.0 KHz
Stream size                      : 307 MiB (31%)
Alignment                        : Split accross interleaves
Interleave, duration             : 40 ms (1.00 video frame)
Interleave, preload duration     : 500 ms
Info: Per scaricare devi usare un client come uTorrent, o Azureus
AnnounceURL
http://fr33dom.h33t.com:3310/announce
Hash 1e4e8efce879fbbc7ef584f9c20dc69450412e40
Peers seeds: 65 , leech: 432
Size 1.95 GB
Completato 211x
Aggiunto 06.06.10 - 17:06:51
Uploader   ultimafrontiera
Votazione (Voti: 0)


Condividi questo bittorrent:


html/blog:


bbcode/forum:


Tramite bookmarks:



Aggiungi Commento