* Dettagli Torrent   globale  | Commenti (0) 


- [BDRip 720p ITA ENG-AC3-SUB] La Fontana dellAmore-aKTiVia -


Download via torrent:
                 
Categoria bittorrent DVD
Descrizione


Titolo Originale: When in Rome
Nazionalita : U.S.A.
Anno : 2010
Genere : Commedia, Romantico
Durata : 91
Regia : Mark Steven Johnson



General
Complete name                    : /[BDrip 720p ITA ENG-AC3-SUB] La Fontana dell\'Amore-aKTiVia.mkv
Format                           : Matroska
File size                        : 4.03 GiB
Duration                         : 1h 27mn
Overall bit rate                 : 6 631 Kbps
Movie name                       : ~ aKTiVia ~
Encoded date                     : UTC 2010-06-12 19:03:28
Writing application              : mkvmerge v3.0.0 (\'Hang up your Hang-Ups\') built on Dec 12 2009 19:05:48
Writing library                  : libebml v0.7.7 + libmatroska v0.8.1

Video
ID                               : 1
Format                           : AVC
Format/Info                      : Advanced Video Codec
Format profile                   : High@L3.1
Format settings, CABAC           : Yes
Format settings, ReFrames        : 5 frames
Muxing mode                      : Container profile=Unknown@3.1
Codec ID                         : V_MPEG4/ISO/AVC
Duration                         : 1h 27mn
Bit rate                         : 5 475 Kbps
Nominal bit rate                 : 5 384 Kbps
Width                            : 1 280 pixels
Height                           : 536 pixels
Display aspect ratio             : 2.35:1
Frame rate                       : 25.000 fps
Original frame rate              : 23.976 fps
Resolution                       : 24 bits
Colorimetry                      : 4:2:0
Scan type                        : Progressive
Bits/(Pixel*Frame)               : 0.319
Stream size                      : 3.33 GiB (83%)
Writing library                  : x264 core 96 r1602 69588a7
Encoding settings                : cabac=1 / ref=5 / deblock=1:0:0 / analyse=0x3:0x113 / me=umh /
subme=7 / psy=1 / psy_rd=1.00:0.20 / mixed_ref=1 / me_range=16 / chroma_me=1 / trellis=1 /
8x8dct=1 / cqm=0 / deadzone=21,11 / fast_pskip=1 / chroma_qp_offset=-3 / threads=12 /
sliced_threads=0 / nr=0 / decimate=1 / interlaced=0 / constrained_intra=0 / bframes=3 /
b_pyramid=2 / b_adapt=1 / b_bias=0 / direct=3 / weightb=1 / weightp=0 / keyint=250 /
keyint_min=25 / scenecut=40 / intra_refresh=0 / rc_lookahead=40 / rc=2pass / mbtree=1 /
bitrate=5384 / ratetol=1.0 / qcomp=0.60 / qpmin=10 / qpmax=51 / qpstep=4 / cplxblur=20.0 /
qblur=0.5 / ip_ratio=1.40 / aq=1:1.00
Language                         : English

Audio #1
ID                               : 2
Format                           : AC-3
Format/Info                      : Audio Coding 3
Codec ID                         : A_AC3
Duration                         : 1h 27mn
Bit rate mode                    : Constant
Bit rate                         : 384 Kbps
Channel(s)                       : 6 channels
Channel positions                : Front: L C R, Surround: L R, LFE
Sampling rate                    : 48.0 KHz
Stream size                      : 239 MiB (6%)
Language                         : Italian

Audio #2
ID                               : 3
Format                           : AC-3
Format/Info                      : Audio Coding 3
Codec ID                         : A_AC3
Duration                         : 1h 27mn
Bit rate mode                    : Constant
Bit rate                         : 640 Kbps
Channel(s)                       : 6 channels
Channel positions                : Front: L C R, Surround: L R, LFE
Sampling rate                    : 48.0 KHz
Stream size                      : 399 MiB (10%)
Language                         : English

Text #1
ID                               : 4
Format                           : UTF-8
Codec ID                         : S_TEXT/UTF8
Codec ID/Info                    : UTF-8 Plain Text
Title                            : Forced
Language                         : Italian

Text #2
ID                               : 5
Format                           : UTF-8
Codec ID                         : S_TEXT/UTF8
Codec ID/Info                    : UTF-8 Plain Text
Language                         : Italian

Text #3
ID                               : 6
Format                           : UTF-8
Codec ID                         : S_TEXT/UTF8
Codec ID/Info                    : UTF-8 Plain Text
Language                         : English

Menu
00:00:00.000                     : en:00:00:00.000
00:05:10.060                     : en:00:05:10.060
00:10:57.198                     : en:00:10:57.198
00:14:36.334                     : en:00:14:36.334
00:18:48.586                     : en:00:18:48.586
00:22:39.233                     : en:00:22:39.233
00:26:50.526                     : en:00:26:50.526
00:28:57.277                     : en:00:28:57.277
00:35:16.197                     : en:00:35:16.197
00:40:14.954                     : en:00:40:14.954
00:44:20.908                     : en:00:44:20.908
00:49:15.744                     : en:00:49:15.744
00:54:26.013                     : en:00:54:26.013
00:59:52.088                     : en:00:59:52.088
01:05:51.948                     : en:01:05:51.948
01:09:47.642                     : en:01:09:47.642
01:14:57.243                     : en:01:14:57.243
01:17:27.726                     : en:01:17:27.726
01:22:09.091                     : en:01:22:09.091
01:24:36.488                     : en:01:24:36.488




Info: Per scaricare devi usare un client come uTorrent, o Azureus
AnnounceURL
http://fr33dom.h33t.com:3310/announce
Hash 2c5179b1d53d17d641c5dbc63dc5097940f5a298
Peers seeds: 1 , leech: 13
Size 4.03 GB
Completato 5x
Aggiunto 12.06.10 - 22:06:31
Uploader   ultimafrontiera
Votazione (Voti: 0)


Condividi questo bittorrent:


html/blog:


bbcode/forum:


Tramite bookmarks:



Aggiungi Commento