* Dettagli Torrent   globale  | Commenti (0) 


- [BDRip 1080p ITA ENG-AC3-SUB] Il Colore del Crimine-LiFE [ultimafrontiera] -


Download via torrent:
                 
Categoria bittorrent DVD
Descrizione


Titolo Originale: Freedomland
Nazionalita : U.S.A.
Anno : 2006
Genere : Drammatico, Thriller
Durata : 116
Regia : Joe Roth



General
Complete name                    : /[BDRip 1080p ITA ENG-AC3-SUB] Il Colore del Crimine-LiFE.mkv
Format                           : Matroska
File size                        : 8.26 GiB
Duration                         : 1h 48mn
Overall bit rate                 : 10.9 Mbps
Movie name                       : ~ LiFE ~
Encoded date                     : UTC 2010-05-13 02:19:29
Writing application              : mkvmerge v3.0.0 (\'Hang up your Hang-Ups\') built on Dec 12 2009 19:05:48
Writing library                  : libebml v0.7.7 + libmatroska v0.8.1

Video
ID                               : 1
Format                           : AVC
Format/Info                      : Advanced Video Codec
Format profile                   : High@L5.1
Format settings, CABAC           : Yes
Format settings, ReFrames        : 5 frames
Muxing mode                      : Container profile=Unknown@5.1
Codec ID                         : V_MPEG4/ISO/AVC
Duration                         : 1h 48mn
Bit rate                         : 9 609 Kbps
Nominal bit rate                 : 9 422 Kbps
Width                            : 1 920 pixels
Height                           : 800 pixels
Display aspect ratio             : 2.40:1
Frame rate                       : 25.000 fps
Original frame rate              : 23.976 fps
Resolution                       : 24 bits
Colorimetry                      : 4:2:0
Scan type                        : Progressive
Bits/(Pixel*Frame)               : 0.250
Stream size                      : 7.28 GiB (88%)
Writing library                  : x264 core 65 r999M cc51047
Encoding settings                : cabac=1 / ref=5 / deblock=1:0:0 / analyse=0x3:0x133 / me=umh /
subme=7 / psy_rd=1.0:0.0 / mixed_ref=1 / me_range=16 / chroma_me=1 / trellis=1 / 8x8dct=1 /
cqm=2 / deadzone=21,11 / chroma_qp_offset=-2 / threads=3 / nr=0 / decimate=1 / mbaff=0 /
bframes=3 / b_pyramid=1 / b_adapt=1 / b_bias=0 / direct=1 / wpredb=1 / keyint=250 / keyint_min=25 /
scenecut=40(pre) / rc=2pass / bitrate=9422 / ratetol=1.0 / qcomp=0.60 / qpmin=10 /
qpmax=51 / qpstep=4 / cplxblur=20.0 / qblur=0.5 / ip_ratio=1.40 / pb_ratio=1.30 / aq=1:1.00

Audio #1
ID                               : 2
Format                           : AC-3
Format/Info                      : Audio Coding 3
Codec ID                         : A_AC3
Duration                         : 1h 48mn
Bit rate mode                    : Constant
Bit rate                         : 448 Kbps
Channel(s)                       : 6 channels
Channel positions                : Front: L C R, Surround: L R, LFE
Sampling rate                    : 48.0 KHz
Video delay                      : 240ms
Stream size                      : 347 MiB (4%)
Language                         : Italian

Audio #2
ID                               : 3
Format                           : AC-3
Format/Info                      : Audio Coding 3
Codec ID                         : A_AC3
Duration                         : 1h 48mn
Bit rate mode                    : Constant
Bit rate                         : 640 Kbps
Channel(s)                       : 6 channels
Channel positions                : Front: L C R, Surround: L R, LFE
Sampling rate                    : 48.0 KHz
Stream size                      : 496 MiB (6%)
Language                         : English

Text #1
ID                               : 4
Format                           : UTF-8
Codec ID                         : S_TEXT/UTF8
Codec ID/Info                    : UTF-8 Plain Text
Title                            : Forced
Language                         : Italian

Text #2
ID                               : 5
Format                           : UTF-8
Codec ID                         : S_TEXT/UTF8
Codec ID/Info                    : UTF-8 Plain Text
Language                         : Italian

Text #3
ID                               : 6
Format                           : UTF-8
Codec ID                         : S_TEXT/UTF8
Codec ID/Info                    : UTF-8 Plain Text
Language                         : English

Info: Per scaricare devi usare un client come uTorrent, o Azureus
AnnounceURL
http://fr33dom.h33t.com:3310/announce
Hash a9bee6fb5b10e744b765aed186c7edda5e8863b8
Peers seeds: 6 , leech: 82
Size 8.26 GB
Completato 12x
Aggiunto 22.06.10 - 00:06:02
Uploader   ultimafrontiera
Votazione (Voti: 0)


Condividi questo bittorrent:


html/blog:


bbcode/forum:


Tramite bookmarks:



Aggiungi Commento