* Dettagli Torrent   globale  | Commenti (0) 


- L oro di Roma - Lizzani [DivX - Mp3 - Ita] [TNTvillage] -


Download via torrent:
                 
Categoria bittorrent DVDrip
Descrizione
L oro di Roma - Lizzani [DivX - Mp3 - Ita] [TNTvillage]

L'ORO DI ROMA

Carlo Lizzani










Titolo originale L'oro di Roma
Paese Italia
Anno 1961
Durata 115 min
Colore b/n
Audio sonoro
Genere drammatico
Regia Carlo Lizzani
Sceneggiatura Lucio Manlio Battistrada, Carlo Lizzani, Giuliani G. De Negri
Fotografia Erico Menczer, Sante Achilli, Aristide Massaccesi
Montaggio ranco Fraticelli
Musiche Giovanni Fusco

Interpreti e personaggi
Gérard Blain: Davide
Anna Maria Ferrero: Giulia Ortona
Jean Sorel: Massimo
Filippo Scelzo: Presidente Comunità Ebraica
Paola Borboni: Rosa
Umberto Raho: Beniamino, secondo rabbino
Ugo D'Alessio: Piperno, l'orefice
Raniero De Cenzo: Rabbino Capo
Andrea Checchi: Ortona
Tino Bianchi: Sua Eccellenza
Enzo Petito: Usuraio
Luigi Scavran: Amalfi
Luigi Casellato: Segretario-Consigliere
Ignazio Leone: Partigiano
Miranda Campa: Signora De Santis
Nando Tamberlani: Signor De Santis
Irag Anvar: Kappler
Calisto Calisti: Vincenzo





Il maggiore Kappler, nel corso dell'occupazione nazista di Roma, ordina agli ebrei della città di consegnare, nel giro di poche ore, cinquanta chilogrammi di oro, pena la consegna di duecento ostaggi. La comunità immediatamente organizza la raccolta del prezioso metallo. David, un giovane calzolaio, esprimendo anche il pensiero di altri giovani, vorrebbe rispondere alla iniqua richiesta con la violenza delle armi. Giulia, la figlia di un professore semita, si innamora di uno studente cattolico, sposando il quale potrebbe sottrarsi alla persecuzione nazista. Dopo la consegna dell'oro, i tedeschi, tradendo ogni promessa, circondano il ghetto ed arrestano tutti gli ebrei. Giulia sceglie la via della deportazione e volontariamente rifiuta una salvezza ancora possibile per seguire la sorte del padre e dei suoi correligionari. David invece sale sulle montagne e, nelle file partigiane, prende le armi contro l'invasore nazista.




"Non sempre persuasivo (...) risulta l'innesto sulla materia storica e corale del "romanzo privato" (...) e il rischio della retorica (insidia) proprio il finale dove il "romanzo privato" dovrebbe tornare a rovesciarsi nel motivo corale."
(G.M. Guglielmino, "Gazzetta del popolo", 10 dicembre 1961)








Carlo Lizzani (Roma, 3 aprile 1922) è un regista, sceneggiatore, attore e produttore cinematografico italiano.
Critico e saggista (autore fra l'altro di una Storia del cinema italiano, 1953, 1961 e 1979), sceneggiatore di Vergano, De Santis, Rossellini e Lattuada nel periodo neorealista, esordì col documentario Nel Mezzogiorno qualcosa è cambiato (1950) e col film Achtung! Banditi! (1951).
Tra i film da lui diretti vanno ricordati: Cronache di poveri amanti (1954), Il processo di Verona (1963), Banditi a Milano (196, Crazy Joe (1973), Mussolini ultimo atto (1974), Storie di vita e malavita (1975), Fontamara (1977), La casa del tappeto giallo (1983), Mamma Ebe (1985), Caro Gorbaciov (198, Cattiva (1991), Celluloide (1995), Hotel Meina (2007), oltre agli sceneggiati televisivi Nucleo Zero (1984), Un'isola (1986) e La trappola (1989).
Dal 1979 al 1982 ha diretto la Mostra del cinema di Venezia.
Nel 1998 ha pubblicato la raccolta di suoi scritti di vario genere Attraverso il Novecento, in cui trovano posto anche interessanti aneddoti sul mondo del cinema neoralista italiano, e nel 2007 la sua autobiografia Il mio lungo viaggio nel secolo breve.
Nel dicembre del 1999 ha ricevuto dall'Università di Torino la laurea "honoris causa" in Scienze della comunicazione.
È tutor del corso di Filmmaker della Accademia Act Multimedia di Cinecittà.












General
Complete name                    : L oro di Roma - Lizzani [DivX - Mp3 - Ita] [TNTvillage].avi
Format                           : AVI
Format/Info                      : Audio Video Interleave
File size                        : 701 MiB
Duration                         : 1h 32mn
Overall bit rate                 : 1 060 Kbps
Writing application              : FairUse Wizard - http://fairusewizard.com
Writing library                  : The best and REALLY easy backup tool

Video
ID                               : 0
Format                           : MPEG-4 Visual
Format settings, BVOP            : Yes
Format settings, QPel            : No
Format settings, GMC             : No warppoints
Format settings, Matrix          : Default (H.263)
Muxing mode                      : Packed bitstream
Codec ID                         : DX50
Codec ID/Hint                    : DivX 5
Duration                         : 1h 32mn
Bit rate                         : 922 Kbps
Width                            : 528 pixels
Height                           : 320 pixels
Display aspect ratio             : 1.650
Frame rate                       : 25.000 fps
Resolution                       : 8 bits
Colorimetry                      : 4:2:0
Scan type                        : Progressive
Bits/(Pixel*Frame)               : 0.218
Stream size                      : 610 MiB (87%)
Writing library                  : DivX 6.7.0 (UTC 2007-09-20)

Audio
ID                               : 1
Format                           : MPEG Audio
Format version                   : Version 1
Format profile                   : Layer 3
Format_Settings_Mode             : Joint stereo / MS Stereo
Codec ID                         : 55
Codec ID/Hint                    : MP3
Duration                         : 1h 32mn
Bit rate mode                    : Constant
Bit rate                         : 128 Kbps
Channel(s)                       : 2 channels
Sampling rate                    : 48.0 KHz
Stream size                      : 84.7 MiB (12%)
Alignment                        : Aligned on interleaves
Interleave, duration             : 40 ms (1.00 video frame)
Interleave, preload duration     : 504 ms
Writing library                  : LAME3.97b
Encoding settings                : -m j -V 4 -q 2 -lowpass 17 -b 128


Visit http://www.tntvillage.scambioetico.org/
Info: Per scaricare devi usare un client come uTorrent, o Azureus
AnnounceURL
http://tracker.tntvillage.scambioetico.org:2710/announce
Hash cdf6e72669c10f6ce1649ba418162a890aa53507
Peers seeds: 1 , leech: 9
Size 701.29 MB
Completato 0x
Aggiunto 12.12.10 - 14:12:37
Uploader   darayava
Votazione (Voti: 0)


Condividi questo bittorrent:


html/blog:


bbcode/forum:


Tramite bookmarks:



Aggiungi Commento