* Dettagli Torrent   globale  | Commenti (0) 


- China Girl - Abel Ferrara [Xvid Ita Ac3] [TNTvillage] -


Download via torrent:
                 
Categoria bittorrent DVDrip
Descrizione
China Girl - Abel Ferrara [Xvid Ita Ac3] [TNTvillage]

CHINA GIRL

Abel Ferrara









REGIA: Abel Ferrara
SCENEGGIATURA: Nicholas St. John

RUOLI E INTERPRETI:

James Russo - Alby
Richard Panebianco - Tony
Sari Chang - Tyan
David Caruso - Mercury
Russell Wong - Yung Gan
Doreen Chan - Gau Shing
Randy Sabusawa - Ma Fan
Joey Chin - Tsu Shin
James Hong - Gung Tu
Paul Hipp - Nino
Judith Malina - Signora Monte
Robert Miano - Enrico Perito

FOTOGRAFIA: Bojan Bazelli
MONTAGGIO: Anthony Redman
MUSICHE: Joe Delia
PRODUZIONE: MICHAEL NOZIK
DISTRIBUZIONE: LIFE INTERNATIONAL (198 - DVD EAGLE PICTURES (2002)
PAESE: USA 1987
GENERE: Romantico
DURATA: 85 Min
FORMATO: Colore PANORAMICA




Canal Street è terra di frontiera: di qua gli italiani di Little Italy, di là i cinesi di Chinatown. Insulti, pugilati e lotte tra piccole bande di teppistelli, molto spesso (anche perché ormai i cinesi stanno dilagando avendo comprato pizzerie e drogherie abruzzesi e siciliane). I grossi boss, però, dell'una e dell'altra parte operano ormai in altre zone e per interessi ben altrimenti rilevanti e sono perfettamente d'accordo nel tenere a freno i balordi di mezza tacca. Sfortunatamente, una sera Tony, un giovincello figlio di una vedova italiana, incontra in discoteca Tyan, una graziosa cinesina, che ha un fratello, capo di una gang, rigidissimo in fatto di razza. Quel matrimonio non s'ha da fare. Anche Tony ha un fratello maggiore - Alby - e così la guerriglia comincia, con violenze, attentati, incursioni e sfide. Invano i boss richiamano all'ordine i contendenti: ai bordi di Canal Street non vi è pace. Nella sparatoria conclusiva, Tony e Tyan resteranno uccisi.




Ferrara si è ormai specializzato in film molto violenti e molto sciocchi. China girl, rilettura al sangue della storia d'amore è soltanto un pretesto per la consueta esibizione di ultraviolenza. E magari qualcuno si divertirà. (Francesco Mininni, Magazine italiano tv) Versione melodrammatica della storia di Romeo e Giulietta: non originale l'idea di partenza, ma labile Ferrara, con la bellissima fotografia di Bazelli, ha realizzato un film violento ed efficace con pochi soldi e tanta buona volontà. (Laura e Morando Morandini, Telesette)












General
Complete name                    : China Girl - Abel Ferrara.avi
Format                           : AVI
Format/Info                      : Audio Video Interleave
File size                        : 700 MiB
Duration                         : 1h 25mn
Overall bit rate                 : 1 144 Kbps
Writing application              : VirtualDubMod 1.5.4.1 (build 2178/release)
Writing library                  : VirtualDubMod build 2178/release

Video
ID                               : 0
Format                           : MPEG-4 Visual
Format profile                   : Advanced Simple@L5
Format settings, BVOP            : Yes
Format settings, QPel            : No
Format settings, GMC             : No warppoints
Format settings, Matrix          : Custom
Codec ID                         : XVID
Codec ID/Hint                    : XviD
Duration                         : 1h 25mn
Bit rate                         : 689 Kbps
Width                            : 512 pixels
Height                           : 384 pixels
Display aspect ratio             : 4:3
Frame rate                       : 25.000 fps
Resolution                       : 8 bits
Colorimetry                      : 4:2:0
Scan type                        : Progressive
Bits/(Pixel*Frame)               : 0.140
Stream size                      : 422 MiB (60%)
Writing library                  : XviD 1.0.3 (UTC 2004-12-20)

Audio
ID                               : 1
Format                           : AC-3
Format/Info                      : Audio Coding 3
Codec ID                         : 2000
Duration                         : 1h 25mn
Bit rate mode                    : Constant
Bit rate                         : 448 Kbps
Channel(s)                       : 6 channels
Channel positions                : Front: L C R, Surround: L R, LFE
Sampling rate                    : 48.0 KHz
Stream size                      : 274 MiB (39%)
Alignment                        : Aligned on interleaves
Interleave, duration             : 96 ms (2.40 video frames)
Interleave, preload duration     : 96 ms
Language                         : Italian


Visit http://www.tntvillage.scambioetico.org/
Info: Per scaricare devi usare un client come uTorrent, o Azureus
AnnounceURL
http://tracker.tntvillage.scambioetico.org:2710/announce
Hash 50322b654a0ff467ba65d4900f0ea25852ee51b0
Peers seeds: 45 , leech: 46
Size 700.35 MB
Completato 397x
Aggiunto 23.12.10 - 13:12:00
Uploader   darayava
Votazione (Voti: 0)


Condividi questo bittorrent:


html/blog:


bbcode/forum:


Tramite bookmarks:



Aggiungi Commento