* Dettagli Torrent   globale  | Commenti (0) 


- Geronimo Stilton S01e01-03 [TVRip - XviD - Ita Mp3] [TNTvillage] -


Download via torrent:
                 
Categoria bittorrent Anime
Descrizione
Geronimo Stilton S01e01-03 [TVRip - XviD - Ita Mp3] [TNTvillage]




GERONIMO STILTON

Stagione 01 Episodi 01-03













Regia Guy Vasilovich
Studio Atlantyca Entertainment - Moonscoop Productions - Mike Young Productions
Reti Rai 2 - Rai Gulp
1ª TV 24 settembre 2009 – 11 gennaio 2010
Episodi 26 (completa)
Durata ep. 30'


Geronimo Stilton è una serie televisiva d'animazione italo-franco-statunitense basata sulla serie di libri della scrittrice per ragazzi Elisabetta Dami e prodotta dalla Atlantyca Entertainment e Moonscoop Productions, in collaborazione con Mike Young Productions e con la partecipazione di Rai Fiction.
È stata prodotta una sola serie, andata in onda in Italia su Rai Due dal 24 settembre 2009 all'11 gennaio 2010.





La vita e le avventure del famosissimo topo a capo dello Stilton Media Group, gruppo mediatico che ha al suo interno una televisione, un giornale (l'Eco del Roditore, il quotidiano più famoso dell'Isola dei Topi) e anche un blog. Geronimo è un "gentil topo" pieno di risorse, dalla mente brillante e dal fiuto eccezionale, ma non si può certo dire che ami lanciarsi a capofitto in avventure mozzafiato: è terrorizzato all'idea di volare, ha paura degli insetti e dei cibi sconosciuti e soffre il mal di mare, il mal d'auto, il mal d'aria. Insomma è goffo, pasticcione, ma suo malgrado temerario. Se potesse scegliere, trascorrerebbe le sue giornate nella tranquillità del suo ufficio, scrivendo e sorseggiando una tazza di tè in compagnia di suo nipote Benjamin. Ma, capita spesso che le avventure vengano a bussare alla loro porta, facendoli correre affannosamente qua e là per Topazia o in località esotiche in giro per il mondo, inseguiti da brutti ceffi o alla ricerca di tesori misteriosi. Sono spesso accompagnati in queste avventure da Trappola, cugino di Geronimo, e perfetto bURLone, e Tea, sorella di Geronimo, una temeraria inviata speciale dell'Eco del Roditore.






Personaggi primari

Geronimo Stilton, protagonista. È il direttore dell’Eco del Roditore, quotidiano dell'Isola dei Topi. È pigro, timido, odia viaggiare e colleziona croste di formaggio del '700. Esaudisce tutti i desideri del nipotino Benjamin.

Tea Stilton, sorella di Geronimo. Grintosa, sportiva, è l'inviato speciale dell'Eco del Roditore. Esperta di karate, guida sempre una moto.

Trappola Stilton, cugino di Geronimo e Tea. Ama cucinare e anche mangiare. Fa molti dispetti a Geronimo e si caccia sempre nei guai. Ha cambiato molti lavori ed ha salvato il quadro di Monnalisa, diventando un eroe.

Benjamin Stilton, nipote di Geronimo. Ha all'incirca 10 anni. E'educato e va molto bene a scuola, tranne ad educazione fisica, come lo zio.




01. Il Gran Torneo dei Guerrieri Topitsu

02. Operazione Shufongfong

03. Mistero sul Roditore Express








Elisabetta Dami, figlia dell'editore per l'infanzia Piero Dami (fondatore nel 1972 della Dami editore), è tra gli scrittori italiani per l'infanzia più noti nel mondo, grazie alla serie di libri sul topo giornalista Geronimo Stilton, pubblicati dalle Edizioni Piemme e tradotti e pubblicati anche all'estero: in Francia sono pubblicati dalla Albin Michel Jeunesse, in Spagna dalla Editorial Planeta, negli Stati Uniti d'America dalla Scholastic.
I libri pubblicati non riportano il nome della Dami come autrice, ma si immagina che siano opera dello stesso Stilton.
Nel 2004 si è conclusa una controversia legale con accordo tra le parti: il cognome del topo, Stilton, è infatti il nome di un formaggio inglese, e The Stilton Cheese Makers Association, azienda produttrice di questo formaggio con sede in Surbiton, aveva deciso di fare opposizione all’utilizzo del nome.
A parte il lavoro, la Dami ama effettuare attività ed esplorazione avventurose: ha scalato il Kilimangiaro, ha effettuato trekking in Nepal, maratone nel deserto, lanci con il paracadute, ed inoltre ha il brevetto di pilota.





General
Complete name                    : Geronimo Stilton - 01 - Il Gran Torneo dei Guerrieri Topitsu.avi
Format                           : AVI
Format/Info                      : Audio Video Interleave
File size                        : 275 MiB
Duration                         : 23mn 2s
Overall bit rate                 : 1 669 Kbps
Writing application              : VirtualDubMod 1.5.10.2 (build 2540/release)
Writing library                  : VirtualDubMod build 2540/release

Video
ID                               : 0
Format                           : MPEG-4 Visual
Format profile                   : Advanced Simple@L5
Format settings, BVOP            : Yes
Format settings, QPel            : No
Format settings, GMC             : No warppoints
Format settings, Matrix          : Default (H.263)
Muxing mode                      : Packed bitstream
Codec ID                         : XVID
Codec ID/Hint                    : XviD
Duration                         : 23mn 2s
Bit rate                         : 1 531 Kbps
Width                            : 640 pixels
Height                           : 480 pixels
Display aspect ratio             : 4:3
Frame rate                       : 25.000 fps
Resolution                       : 8 bits
Colorimetry                      : 4:2:0
Scan type                        : Progressive
Bits/(Pixel*Frame)               : 0.199
Stream size                      : 252 MiB (92%)
Writing library                  : XviD 1.2.0.dev47 (UTC 2006-11-01)

Audio
ID                               : 1
Format                           : MPEG Audio
Format version                   : Version 1
Format profile                   : Layer 3
Format_Settings_Mode             : Joint stereo / MS Stereo
Codec ID                         : 55
Codec ID/Hint                    : MP3
Duration                         : 23mn 2s
Bit rate mode                    : Constant
Bit rate                         : 128 Kbps
Channel(s)                       : 2 channels
Sampling rate                    : 48.0 KHz
Video delay                      : 48ms
Stream size                      : 21.1 MiB (8%)
Alignment                        : Aligned on interleaves
Interleave, duration             : 40 ms (1.00 video frame)
Interleave, preload duration     : 504 ms




Visit http://www.tntvillage.scambioetico.org/
Info: Per scaricare devi usare un client come uTorrent, o Azureus
AnnounceURL
http://tracker.tntvillage.scambioetico.org:2710/announce
Hash a8ad2e93debfdb6ea9240024e5f7a2315bb59951
Peers seeds: 34 , leech: 88
Size 824.99 MB
Completato 149x
Aggiunto 30.12.10 - 09:12:22
Uploader   darayava
Votazione (Voti: 0)


Condividi questo bittorrent:


html/blog:


bbcode/forum:


Tramite bookmarks:



Aggiungi Commento