* Dettagli Torrent   globale  | Commenti (0) 


- Ennio Morricone - Perlasca [Lossless WV Cue] cover [TNTvillage] -


Download via torrent:
                 
Categoria bittorrent Musica
Descrizione
Ennio Morricone - Perlasca [Lossless WV Cue] + cover [TNTvillage]

ENNIO MORRICONE

PERLASCA











Titolo: Perlasca
Compositore: Ennio Morricone
Anno: Rai Trade distr. Ducale 2003
Genere: Soundtrack - Musica sinfonica
Dimensione: 273,4 MB





1. Un canto antico
2. Estasi tensiva
3. Doppio canto
4. Primo tema
5. A specchio
6. Secondo tema
7. Riflessione epica
8. Canto popolare
9. Grave estenuante
10. Oltre il suono
11. Perlasca e la fuga
12. Romanticamente interiore
13. Marcia degli assassini
14. Estasi tensiva







Ennio Morricone (Roma, 10 novembre 192 un compositore italiano.
Celebre per le numerose colonne sonore cinematografiche, (496 al momento, l'ultima Mi ricordo Anna Frank), di cui solamente 30 scritte per film western. Il suo particolare ed imitato stile di composizione per questo genere esemplificato in particolare dalla colonna sonora di Il buono, il brutto, il cattivo di Sergio Leone, regista con il quale il compositore diede vita ad una lunga e proficua collaborazione.
La produzione di Morricone annovera inoltre una nutrita schiera di composizioni che non sono nate per il cinema e che rientrano nel genere della musica contemporanea: opere teatrali, lavori sinfonici e per solista e orchestra, composizioni corali, musica da camera, ecc.
Ennio Morricone Accademico Effettivo dell'Accademia Nazionale di Santa Cecilia oltre che socio da molti anni della prestigiosa associazione Nuova Consonanza che svolge in Italia un importante ruolo di diffusione e produzione di musica contemporanea. Morricone ha venduto pi di 50 milioni di dischi.






Exact Audio Copy V0.99 prebeta 5 from 4. May 2009

EAC extraction logfile from 1. December 2009, 20:51

Ennio Morricone / Perlasca

Used drive  : LITE-ON DVDRW SHW-1635S   Adapter: 1  ID: 0

Read mode               : Secure
Utilize accurate stream : Yes
Defeat audio cache      : Yes
Make use of C2 pointers : No

Read offset correction                      : 6
Overread into Lead-In and Lead-Out          : No
Fill up missing offset samples with silence : Yes
Delete leading and trailing silent blocks   : No
Null samples used in CRC calculations       : Yes
Used interface                              : Installed external ASPI interface

Used output format : Internal WAV Routines
Sample format      : 44.100 Hz; 16 Bit; Stereo


TOC of the extracted CD

    Track |   Start  |  Length  | Start sector | End sector
   ---------------------------------------------------------
       1  |  0:00.00 |  3:11.01 |         0    |    14325  
       2  |  3:11.01 |  5:28.00 |     14326    |    38925  
       3  |  8:39.01 |  4:23.70 |     38926    |    58720  
       4  | 13:02.71 |  2:08.02 |     58721    |    68322  
       5  | 15:10.73 |  5:05.03 |     68323    |    91200  
       6  | 20:16.01 |  2:56.01 |     91201    |   104401  
       7  | 23:12.02 |  2:49.69 |    104402    |   117145  
       8  | 26:01.71 |  2:29.04 |    117146    |   128324  
       9  | 28:31.00 |  4:36.72 |    128325    |   149096  
      10  | 33:07.72 |  4:05.06 |    149097    |   167477  
      11  | 37:13.03 |  2:12.69 |    167478    |   177446  
      12  | 39:25.72 |  4:27.06 |    177447    |   197477  
      13  | 43:53.03 |  2:17.70 |    197478    |   207822  
      14  | 46:10.73 |  5:24.59 |    207823    |   232181  


Range status and errors

Selected range

    Filename E:\Ennio Morricone - Perlasca\Perlasca.wav

    Peak level 100.0 %
    Range quality 100.0 %
    Test CRC 8EFA02C5
    Copy CRC 8EFA02C5
    Copy OK

No errors occurred

End of status report



Visit http://www.tntvillage.scambioetico.org/
Info: Per scaricare devi usare un client come uTorrent, o Azureus
AnnounceURL
http://tracker.tntvillage.scambioetico.org:2710/announce
Hash 30a82a77af11c3b218d9608e84d47f9e46e0d2d2
Peers seeds: 8 , leech: 3
Size 260.69 MB
Completato 118x
Aggiunto 26.02.11 - 10:02:32
Uploader   darayava
Votazione (Voti: 0)


Condividi questo bittorrent:


html/blog:


bbcode/forum:


Tramite bookmarks:



Aggiungi Commento