* Dettagli Torrent   globale  | Commenti (0) 


- Un Boss sotto Stress [BDrip 720p-H264-Ita Ac3 Eng DTS-Sub Ita Eng][TNT Village] -


Download via torrent:
                 
Categoria bittorrent DVD
Descrizione

PRESENTA

Un Boss sotto Stress [BDrip 720p-H264-Ita Ac3 Eng DTS-Sub Ita Eng][TNT Village]



.: SCHEDA .:


Titolo originale: Analyze that
Nazione:   Usa
Anno:   2002
Genere:   Commedia
Regia:   Harold Ramis
Sito ufficiale:   analyzethatmovie.warnerbros.com
Cast:   Robert De Niro, Billy Crystal, Lisa Kudrow, Joe Viterelli
Produzione:   Jane Rosenthal, Paula Weinstein
Distribuzione:   Warner Bros
Uscita prevista:   07 marzo 2003 (cinema)


.: TRAMA .:

In un weekend di sesso, droga, ricordi e pazzie, un gruppo di amici si ritrova e scopre che la vita pi facile se non si soli. Un cult movie, diretto da Lawrence Kasdan, che ha fatto da trampolino di lancio verso il successo per tutti gli interpreti del film, da Kevin Kline a Glenn Close, da Tom Berenger a William Hurt e Jeff Goldblum.

.: SCREENSHOTS .:





.: DATI TECNICI .:

General
Complete name                    : Analyze.That.2002.720p.Bluray.X264-DIMENSION Ac3.Ita.Dts.Eng
Format                           : Matroska
File size                        : 4.83 GiB
Duration                         : 1h 43mn
Overall bit rate                 : 6 679 Kbps
Encoded date                     : UTC 2011-03-01 21:02:51
Writing application              : mkvmerge v4.4.0 ('Die Wiederkehr') built on Oct 31 2010 21:52:48
Writing library                  : libebml v1.0.0 + libmatroska v1.0.0

Video
ID                               : 1
Format                           : AVC
Format/Info                      : Advanced Video Codec
Format profile                   : High@L4.1
Format settings, CABAC           : Yes
Format settings, ReFrames        : 6 frames
Muxing mode                      : Header stripping
Codec ID                         : V_MPEG4/ISO/AVC
Duration                         : 1h 43mn
Bit rate                         : 4 534 Kbps
Width                            : 1 280 pixels
Height                           : 720 pixels
Display aspect ratio             : 16:9
Frame rate                       : 23.976 fps
Color space                      : YUV
Chroma subsampling               : 4:2:0
Bit depth                        : 8 bits
Scan type                        : Progressive
Bits/(Pixel*Frame)               : 0.205
Stream size                      : 3.18 GiB (66%)
Writing library                  : x264 core 84 r1416 fcf70c2
Encoding settings                : cabac=1 / ref=6 / deblock=1:0:0 / analyse=0x3:0x113 / me=umh / subme=9 / psy=1 / psy_rd=1.1:0.0 / mixed_ref=1 / me_range=16 / chroma_me=1 / trellis=1 / 8x8dct=1 / cqm=0 / deadzone=21,11 / fast_pskip=0 / chroma_qp_offset=-2 / threads=6 / sliced_threads=0 / nr=0 / decimate=1 / mbaff=0 / constrained_intra=0 / bframes=3 / b_pyramid=0 / b_adapt=2 / b_bias=0 / direct=3 / wpredb=1 / wpredp=2 / keyint=250 / keyint_min=25 / scenecut=40 / intra_refresh=0 / rc_lookahead=30 / rc=2pass / mbtree=1 / bitrate=4534 / ratetol=1.0 / qcomp=0.60 / qpmin=10 / qpmax=51 / qpstep=4 / cplxblur=20.0 / qblur=0.5 / ip_ratio=1.40 / aq=1:1.10
Language                         : English

Audio #1
ID                               : 2
Format                           : AC-3
Format/Info                      : Audio Coding 3
Mode extension                   : CM (complete main)
Muxing mode                      : Header stripping
Codec ID                         : A_AC3
Duration                         : 1h 43mn
Bit rate mode                    : Constant
Bit rate                         : 640 Kbps
Channel(s)                       : 6 channels
Channel positions                : Front: L C R, Side: L R, LFE
Sampling rate                    : 48.0 KHz
Bit depth                        : 16 bits
Stream size                      : 474 MiB (10%)
Language                         : Italian

Audio #2
ID                               : 3
Format                           : DTS
Format/Info                      : Digital Theater Systems
Muxing mode                      : Header stripping
Codec ID                         : A_DTS
Duration                         : 1h 43mn
Bit rate mode                    : Constant
Bit rate                         : 1 510 Kbps
Channel(s)                       : 6 channels
Channel positions                : Front: L C R, Side: L R, LFE
Sampling rate                    : 48.0 KHz
Bit depth                        : 16 bits
Stream size                      : 1.09 GiB (23%)
Language                         : English

Text #1
ID                               : 4
Format                           : UTF-8
Codec ID                         : S_TEXT/UTF8
Codec ID/Info                    : UTF-8 Plain Text
Title                            : Italiano
Language                         : Italian

Text #2
ID                               : 5
Format                           : UTF-8
Codec ID                         : S_TEXT/UTF8
Codec ID/Info                    : UTF-8 Plain Text
Language                         : English
Info: Per scaricare devi usare un client come uTorrent, o Azureus
AnnounceURL
http://tracker.tntvillage.scambioetico.org:2710/announce
Hash b8555c5e4154e2c28bf7ca4c64185daf866c7e82
Peers seeds: 8 , leech: 59
Size 4.83 GB
Completato 31x
Aggiunto 03.03.11 - 13:03:36
Uploader   Dorelik
Votazione (Voti: 0)


Condividi questo bittorrent:


html/blog:


bbcode/forum:


Tramite bookmarks:



Aggiungi Commento