* Dettagli Torrent   globale  | Commenti (0) 


- LAgnese va a morire - Giuliano Montaldo 1976 [DivX - Ita Mp3] [TNTvillage] -


Download via torrent:
                 
Categoria bittorrent DVDrip
Descrizione
L'Agnese va a morire - Giuliano Montaldo 1976 [DivX - Ita Mp3] [TNTvillage]




L'AGNESE VA A MORIRE

Giuliano Montaldo
(1976)




REGIA: Giuliano Montaldo
SCENEGGIATURA:[color=#ffcc00] Giuliano Montaldo, Nicola Badalucco


RUOLI ED INTERPRETI:
Ingrid Thulin - Agnese
Stefano Satta Flores - Comandante
Michele Placido - Tom
Aurore Clément - Rina
Ninetto Davoli - 'La disperata'
William Berger - Clinto
Flavio Bucci - Il pugliese
Ron - Zero
Alfredo Pea - Tonitti
Aldo Reggiani - Soldato sbandato
Eleonora Giorgi - Vannina
Massimo Girotti - Palita
Johnny Dorelli - Walter
Gino Santercole - Piròn
Dina Sassoli - Minghina
Bruno Zanin - Figlio di Cencio
Piero Anchisi - Toni
Mario Bardella - Magòn
Joan Peter Boom - Soldato tedesco
Manfred Freyberger - Maresciallo tedesco
Gabriella Giorgelli - Lorenza
Laura Lenzi - Maria
Antonio Piovanelli - La guida
Agla Marsili - Moglie di Walter
Paolo Viola - Mingùcc
Roger Worrod - Ufficiale inglese
Otello Prati - Cencio, il partigiano
Giovanni Brusatori - 'Tarzan'
Sergio Serafini - Partigiano
Ornella Muti


FOTOGRAFIA: Giulio Albonico, Cristiano Pogany
MONTAGGIO: Franco Fraticelli
MUSICHE: Ennio Morricone
PRODUZIONE: PALAMO FILM
DISTRIBUZIONE: CIDIF - RICORDI VIDEO, SAN PAOLO AUDIOVISIVI
PAESE: Italia 1976
GENERE: Drammatico
DURATA: 135 Min
FORMATO: Colore 35 MM, VISTAVISION, TECHNIcolor, EASTMANcolor
SOGGETTO: romanzo omonimo di Renata Viganò[/color]





Agnese, lavandaia della bassa Emilia, vive silenziosamente accanto a Paolo Palita, pressoché immobilizzato, ma ancora indomito marxista. Quando i Tedeschi le portano via il marito, che morirà sotto un bombardamento nel corso del trasferimento verso la Germania, Agnese decide di arruolarsi come partigiana. Dopo aver ucciso un tedesco con il calcio del fucile, raggiunge un gruppo partigiano e ne diviene nel contempo la vivandiera e la "mamma". Per quanto illetterata, Mamma Agnese dimostra equilibrio e molto buon senso. Così, poco alla volta, i campagni le affidano compiti organizzativi importanti e le danno donne-staffette: non di rado, inoltre, alcuni casi vengono risolti in base alle sue timide osservazioni. Quando, nell'ultimo duro inverno, un gruppo di partigiani viene tradito e sterminato da Tedeschi appostati lungo il percorso che dovrebbe portarli oltre le linee, Agnese disobbedisce al Capo nascondendo in casa i superstiti; rischia l'espulsione ma viene reintegrata. Mentre si avvia verso il luogo di una missione, incappa in un posto di blocco. Un ufficiale, compagno di quello ucciso dalla partigiana, la riconosce e la uccide immediatamente sul posto.





"Il personaggio di 'Mamma Agnese' (tra l'altro interpretato con impegno dalla Thulin) è pressoché una novità apprezzabile nella lunga e logora antologia filmica sulla Resistenza. Tuttavia, valido come simbolo della donna in un tormentato periodo storico, manca nella fattispecie di sufficiente spessore e contiene dell'ambiguità morale: se le sue doti materne nei confronti di giovani allo sbaraglio e alle prese con momenti psicologicamente assai difficili sono positive, la sua scelta 'politica' non scaturisce da effettiva coscienza ideologica, bensì da un'emotiva e inflessibile volontà di vendetta." ('Segnalazioni cinematografiche', vol. 82, 1977)













General
Complete name                    : L'Agnese va a morire.avi
Format                           : AVI
Format/Info                      : Audio Video Interleave
File size                        : 791 MiB
Duration                         : 2h 7mn
Overall bit rate                 : 870 Kbps
Writing application              : VirtualDubMod 1.5.4.1 (build 2066/release)
Writing library                  : VirtualDubMod build 2066/release

Video
ID                               : 0
Format                           : MPEG-4 Visual
Format settings, BVOP            : Yes
Format settings, QPel            : No
Format settings, GMC             : No warppoints
Format settings, Matrix          : Default (H.263)
Muxing mode                      : Packed bitstream
Codec ID                         : DX50
Codec ID/Hint                    : DivX 5
Duration                         : 2h 7mn
Bit rate                         : 765 Kbps
Width                            : 612 pixels
Height                           : 336 pixels
Display aspect ratio             : 16:9
Frame rate                       : 25.000 fps
Resolution                       : 8 bits
Scan type                        : Progressive
Bits/(Pixel*Frame)               : 0.149
Stream size                      : 695 MiB (88%)
Writing library                  : DivX 5.0.2 (UTC 2002-05-16)

Audio
ID                               : 1
Format                           : MPEG Audio
Format version                   : Version 1
Format profile                   : Layer 3
Format_Settings_Mode             : Joint stereo / Intensity Stereo + MS Stereo
Codec ID                         : 55
Codec ID/Hint                    : MP3
Duration                         : 2h 7mn
Bit rate mode                    : Constant
Bit rate                         : 96.0 Kbps
Channel(s)                       : 2 channels
Sampling rate                    : 48.0 KHz
Stream size                      : 87.3 MiB (11%)
Alignment                        : Split accross interleaves
Interleave, duration             : 40 ms (1.00 video frame)
Interleave, preload duration     : 500 ms


Visit http://www.tntvillage.scambioetico.org/
Info: Per scaricare devi usare un client come uTorrent, o Azureus
AnnounceURL
http://tracker.tntvillage.scambioetico.org:2710/announce
Hash 691cc40c7fcf90b62244d58625d49af0d1d48fbc
Peers seeds: 31 , leech: 37
Size 791.04 MB
Completato 234x
Aggiunto 08.03.11 - 16:03:56
Uploader   darayava
Votazione (Voti: 0)


Condividi questo bittorrent:


html/blog:


bbcode/forum:


Tramite bookmarks:



Aggiungi Commento