* Dettagli Torrent   globale  | Commenti (0) 


- Moll Flanders [DivX - Ita Ac3] [TNTvillage] -


Download via torrent:
                 
Categoria bittorrent DVDrip
Descrizione
Moll Flanders [DivX - Ita Ac3] [TNTvillage]

MOLL FLANDERS

Pen Densham











REGIA: Pen Densham
SCENEGGIATURA: Pen Densham
FOTOGRAFIA: David Tattersall
MONTAGGIO: Neil Travis, James R. Symons
MUSICHE: Mark Mancina
PRODUZIONE: SPELLING FILMS - METRO GOLDWIN MAYER - TRILOGY ENTERTAINMENT
DISTRIBUZIONE: METRO GOLDWIN MAYER - MEDUSA FILM - MEDUSA VIDEO
PAESE: Irlanda, USA 1996
GENERE: Drammatico
DURATA: 169 Min
FORMATO: Colore PANORAMICA A colorI
SOGGETTO:




Robin Wright Penn -•- Moll Flanders
Morgan Freeman -•- Hibble
Stockard Channing -•- Signora Allwoorthy
John Lynch -•- Jonathan Fielding
Aisling Carcoran -•- Flora
Jeremy Brett -•- Padre dell'artista
Britta Smith -•- Madre dell'artista
Brenda Fricker -•- Signora Mazzawatti
Geraldine James -•- Edna
Cathy Murphy -•- Polly
Jim Sheridan -•- Prete





La piccola Flora vive in un orfanotrofio nella Londra del '700. Un giorno arriva uno straniero di nome Hibbie che dice di aver conosciuto sua madre e di essere venuto per portarla via dall'orfanotrofio e condURLa al di là dell'oceano nella casa di una ricca benefattrice. Durante il lungo viaggio, prima in carrozza e poi in nave, Hibbie legge a Flora la storia di Moll Flanders, sua madre, donna nota per il suo carattere ribelle e il suo modo di fare spregiudicato. A partire dalla nascita nel carcere di Newgate, la storia di Moll va avanti tra mille difficoltà, fin quando viene accolta nella casa di un'anziana benefattrice, Mrs. Mazzawatti, e da qui condotta in un'altra casa, stavolta di appuntamenti, di cui è proprietaria l'ambiziosa miss Allworthy. Passando da un cliente all'altro, Moll pensa di sfruttare il proprio fascino per diventare importante, ma il potere le sfugge ogni volta e si dà all'alcool. Finché un artista la nota, la ingaggia come modella, i due si innamorano e, nonostante l'opposizione dei ricchi genitori di lui, si sposano. All'improvviso però il marito si ammala e muore e, poco dopo, Moll dà alla luce una bambina che viene chiamata Flora. Moll ricade sotto il controllo di miss Allworthy che sta andando nel nuovo mondo dove ha avuto una ricca concessione di terre. La piccola Flora rimane a Londra contro la volontà di Moll ma oggi il fedele Hibbie ha portato a termine il proprio compito, riconsegnando la figlioletta alla madre.





"Densham, che asserisce d'essersi ispirato alle acqueforti e alle incisioni di Hogarth (non risulta dalle immagini), concepisce un racconto picaresco unicamente dozzinale e brutto, ridondante e retorico, semplificando fino all'inattendibile qualsiasi riferimento alla società e ai comportamenti dell'epoca. Nell'impresa disastrosa naufraga anche il buon Morgan Freeman e la pur bella protagonista, quella Robin Wright che fu il grande amore infelice di Forrest Gump, è costretta a sottomettersi all'ovvietà del cattivo cinema." ('Il Messaggero', Fabio Bo, 17/11/96)

"Converrebbe, per chi non lo conosce, leggere il romanzo: il film che onestamente si dichiara ispirato all'opera di Defoe ne dà appena un'eco remota, una versione ridotta e moralisticamente, ottimisticalmente accomodata, diretta da un ex sceneggiatore e produttore televisivo, interpretata per fortuna da Robin Wright." ('La Stampa', Lietta Tornabuoni, 23/11/96)













General
Complete name                    : Moll Flanders.avi
Format                           : AVI
Format/Info                      : Audio Video Interleave
File size                        : 1.37 GiB
Duration                         : 1h 46mn
Overall bit rate                 : 1 833 Kbps
Writing application              : VirtualDubMod 1.5.4.1 (build 2178/release)
Writing library                  : VirtualDubMod build 2178/release

Video
ID                               : 0
Format                           : MPEG-4 Visual
Format settings, BVOP            : No
Format settings, QPel            : No
Format settings, GMC             : No warppoints
Format settings, Matrix          : Default (H.263)
Codec ID                         : DX50
Codec ID/Hint                    : DivX 5
Duration                         : 1h 46mn
Bit rate                         : 1 570 Kbps
Width                            : 704 pixels
Height                           : 368 pixels
Display aspect ratio             : 1.913
Frame rate                       : 25.000 fps
Resolution                       : 8 bits
Colorimetry                      : 4:2:0
Scan type                        : Progressive
Bits/(Pixel*Frame)               : 0.242
Stream size                      : 1.17 GiB (86%)
Writing library                  : DivX 5.2.1 (WaffleDay) (UTC 2004-09-0

Audio
ID                               : 1
Format                           : AC-3
Format/Info                      : Audio Coding 3
Codec ID                         : 2000
Duration                         : 1h 46mn
Bit rate mode                    : Constant
Bit rate                         : 256 Kbps
Channel(s)                       : 2 channels
Channel positions                : L R
Sampling rate                    : 48.0 KHz
Video delay                      : 64ms
Stream size                      : 196 MiB (14%)
Alignment                        : Split accross interleaves
Interleave, duration             : 80 ms (2.00 video frames)
Interleave, preload duration     : 500 ms


Visit http://www.tntvillage.scambioetico.org/
Info: Per scaricare devi usare un client come uTorrent, o Azureus
AnnounceURL
http://tracker.tntvillage.scambioetico.org:2710/announce
Hash 15942a87ff43cbc312c595a4e11a6cc9ca67902c
Peers seeds: 18 , leech: 106
Size 1.37 GB
Completato 141x
Aggiunto 09.03.11 - 20:03:27
Uploader   darayava
Votazione (Voti: 1)


Condividi questo bittorrent:


html/blog:


bbcode/forum:


Tramite bookmarks:



Aggiungi Commento