* Dettagli Torrent   globale  | Commenti (0) 


- La vera storia di Marianne Golz [SATrip - XviD - Ita Mp3] History Channel [TNTvillage] -


Download via torrent:
                 
Categoria bittorrent DVDrip
Descrizione
La vera storia di Marianne Golz [SATrip - XviD - Ita Mp3] History Channel [TNTvillage]

La vera storia di Marianne Golz







La vita di Marianne Golz, cantante lirica austriaca, ghigliottinata dai nazisti nel 1943 per aver salvato numerosi ebrei raccontata da Ronnie Golz.



Marianne Golz-Goldlust, cantante lirica austriaca, di rara bellezza, nella Praga occupata dai nazisti, salva numerose vite di ebrei. Arrestata dalla Gestapo come nemica del Reich, viene ghigliottinata il 18 maggio 1943. Il 9 giugno 1988 č insignita dal Museo di Yad Vashem di Gerusalemme del titolo di “Giusto tra le nazioni”. Invia numerose lettere durante la sua prigionia nel carcere praghese di Pancraz, alla sorella Rosi e a Richard Macha, suo ultimo grande amore. Dalle prime lettere inviate dalla prigione alla sorella Rosi emerge l'ottimismo di una donna che, celebre cantante e poi giornalista, fino a quel momento ha avuto tutto dalla vita. Sembra convinta di riuscire a salvarsi ma, mano a mano che i giorni passano, il tono delle lettere cambia. Poi, il 18 maggio 1943, bruscamente, tutto il suo universo crolla.










[b]General

Complete name                    : La vera storia di Marianne Golz.avi
Format                           : AVI
Format/Info                      : Audio Video Interleave
File size                        : 300 MiB
Duration                         : 50mn 58s
Overall bit rate                 : 823 Kbps
Writing application              : VirtualDubMod 1.5.4.1 (build 2178/release)
Writing library                  : VirtualDubMod build 2178/release

Video
ID                               : 0
Format                           : MPEG-4 Visual
Format profile                   : Advanced Simple@L5
Format settings, BVOP            : Yes
Format settings, QPel            : No
Format settings, GMC             : No warppoints
Format settings, Matrix          : Custom
Codec ID                         : XVID
Codec ID/Hint                    : XviD
Duration                         : 50mn 58s
Bit rate                         : 675 Kbps
Width                            : 592 pixels
Height                           : 336 pixels
Display aspect ratio             : 16:9
Frame rate                       : 25.000 fps
Resolution                       : 8 bits
Colorimetry                      : 4:2:0
Scan type                        : Progressive
Bits/(Pixel*Frame)               : 0.136
Stream size                      : 246 MiB (82%)
Writing library                  : XviD 1.0.3 (UTC 2004-12-20)

Audio
ID                               : 1
Format                           : MPEG Audio
Format version                   : Version 1
Format profile                   : Layer 3
Format_Settings_Mode             : Joint stereo / MS Stereo
Codec ID                         : 55
Codec ID/Hint                    : MP3
Duration                         : 50mn 58s
Bit rate mode                    : Variable
Bit rate                         : 135 Kbps
Nominal bit rate                 : 128 Kbps
Channel(s)                       : 2 channels
Sampling rate                    : 48.0 KHz
Video delay                      : 24ms
Stream size                      : 49.0 MiB (16%)
Alignment                        : Split accross interleaves
Interleave, duration             : 24 ms (0.60 video frame)
Interleave, preload duration     : 576 ms
Writing library                  : LAME3.96r
Encoding settings                : -m j -V 4 -q 2 -lowpass 17.5 --abr 128
Language                         : Unknown language

Visit http://www.tntvillage.scambioetico.org/
Info: Per scaricare devi usare un client come uTorrent, o Azureus
AnnounceURL
http://tracker.tntvillage.scambioetico.org:2710/announce
Hash a939b63621b399b01c30fce7bdaf920f4e010860
Peers seeds: 16 , leech: 11
Size 299.95 MB
Completato 175x
Aggiunto 09.03.11 - 21:03:41
Uploader   darayava
Votazione (Voti: 0)


Condividi questo bittorrent:


html/blog:


bbcode/forum:


Tramite bookmarks:



Aggiungi Commento