* Dettagli Torrent   globale  | Commenti (0) 


- 1860 - I Mille Di Garibaldi [XviD - Ita Mp3] [TNTvillage] -


Download via torrent:
                 
Categoria bittorrent DVDrip
Descrizione
1860 - I Mille Di Garibaldi [XviD - Ita Mp3] [TNTvillage]





1860 - I MILLE DI GARIBALDI










REGIA: Alessandro Blasetti
SCENEGGIATURA: Alessandro Blasetti, Emilio Cecchi, Gino Mazzucchi

RUOLI ED INTERPRETI
Aida Bellia -•- Gesuzza
Giuseppe Gulino -•- Carmeliddu
Gianfranco Giachetti -•- Padre Costanzo
Mario Ferrari -•- Colonnello Carini
Maria Denis -•- Clelia
Laura Nucci -•- Ragazza Siciliana
Vasco Creti -•- Uomo Sul Treno
Otello Toso -•- Soldato Piemontese
Andrea Checchi -•- Soldato
Totò Majorana -•- Totuzzo, Ragazzo Ucciso

Ugo Gracci -•- Sentinella
Cesare Zoppetti -•- Signore Sul Treno
Umberto Sacripante -•- Patriota
Luigi Erminio D'Olivo -•- Patriota
Amedeo Trilli -•- Contadino Siciliano
Turi Pandolfini -•- Vecchietto Al Circolo
Amedeo Vecci
Gstone Ror
Pietro De Maria
Carlo Chertier
Arcangelo Aversa
Franco Brambilla
Arnaldo Baldaccini
Leo Bartoli
Nello Carotenuto

Nais Lago
Alfredo Fiorentini
Aldo Frosi

FOTOGRAFIA: Anchise Brizzi, Giulio De Luca
MONTAGGIO: Alessandro Blasetti, Giacinto Solito, Ignazio Ferronetti
MUSICHE: Nino Medin
PRODUZIONE: EMILIO CECCHI PER CINES
DISTRIBUZIONE: ANONIMA PITTALUGA
PAESE: Italia 1934
GENERE: Drammatico, Storico
DURATA: 81 Min
FORMATO: B/N
SOGGETTO: tratto liberamente da un racconto di Gino Mazzucchi





Gli irredentisti siciliani, i "picciotti" si sono ritirati sugli aspri monti dell'isola, in attesa dell'arrivo del liberatore Garibaldi, dato per imminente. L'attesa si fa drammatica poiché i soldati borbonici, forti della loro superiorità numerica e d'armamento, non danno requie agli insorti.
Un loro emissario riesce a raggiungere il continente per sollecitare la progettata spedizione: ma non pochi né lievi sono gli ostacoli che si oppongono all'iniziativa di Garibaldi.
Sembra, per un momento, che essa debba essere accantonata, e ciò segnerebbe la fine degli animosi ribelli isolani. Ma il generale rompe finalmente ogni indugio e con i suoi "mille" si imbarca a Quarto. Lo sbarco a Marsala e la vittoriosa, rapida avanzata del corpo di volontari, conclude il film.




Tratto da un racconto di Gino Mazzucchi, autore della sceneggiatura con Blasetti ed Emilio Cecchi che lo produsse per la Cines e invitò il regista, prima delle riprese, a leggere Noterelle di uno dei Mille (1880) di G.C. Abba. Assai apprezzato dalla critica (ma non dal pubblico) dell'epoca, considerato dopo la guerra uno degli incunaboli del neorealismo, oggetto poi di una lunga polemica di carattere storicistico, messo in croce per le sue consonanze palesi o implicite con la propaganda del regime fascista (i 5 minuti che mancano dall'edizione originale ne contenevano i segni più grossolani), oggi conta per la sua asciuttezza stilistica (non senza influenze del cinema sovietico), la scoperta del paesaggio, la coraggiosa scelta di tipi e personaggi popolari, l'efficacia del montaggio, l'incombenza come eroe e demiurgo di Garibaldi che pur vi appare fisicamente soltanto in sei veloci inquadrature. Blasetti stesso ne curò, dopo la guerra, un'edizione tagliando quei 5 minuti. Uscì col titolo I Mille di Garibaldi nel 1951.













General
Complete name                    : 1860 - I Mille Di Garibaldi.avi
Format                           : AVI
Format/Info                      : Audio Video Interleave
File size                        : 1.09 GiB
Duration                         : 1h 13mn
Overall bit rate                 : 2 123 Kbps

Video
ID                               : 0
Format                           : MPEG-4 Visual
Format profile                   : Advanced Simple@L5
Format settings, BVOP            : Yes
Format settings, QPel            : No
Format settings, GMC             : No warppoints
Format settings, Matrix          : Default (MPEG)
Codec ID                         : XVID

Codec ID/Hint                    : XviD
Duration                         : 1h 13mn
Bit rate                         : 2 002 Kbps
Width                            : 544 pixels
Height                           : 400 pixels
Display aspect ratio             : 4:3
Frame rate                       : 25.000 fps
Resolution                       : 8 bits
Colorimetry                      : 4:2:0
Scan type                        : Progressive
Bits/(Pixel*Frame)               : 0.368
Stream size                      : 1.03 GiB (94%)
Title                            : "1860" (Alessandro Blasetti, 1934)
Writing library                  : XviD 1.2.0.dev47 (UTC 2006-11-01)

Audio
ID                               : 1

Format                           : MPEG Audio
Format version                   : Version 1
Format profile                   : Layer 3
Codec ID                         : 55
Codec ID/Hint                    : MP3
Duration                         : 1h 13mn
Bit rate mode                    : Variable
Bit rate                         : 108 Kbps
Nominal bit rate                 : 138 Kbps
Channel(s)                       : 1 channel
Sampling rate                    : 44.1 KHz
Stream size                      : 57.2 MiB (5%)
Alignment                        : Aligned on interleaves
Interleave, duration             : 26 ms (0.65 video frame)
Interleave, preload duration     : 76 ms
Title                            : Italiano
Writing library                  : LAME3.98b
Encoding settings                : -m m -V 4 -q 0 -lowpass 20.5 --abr 138


Visit http://www.tntvillage.scambioetico.org/
Info: Per scaricare devi usare un client come uTorrent, o Azureus
AnnounceURL
http://tracker.tntvillage.scambioetico.org:2710/announce
Hash cf59ad8f23417fc0aea6a2924fb47b2fdfef8042
Peers seeds: 18 , leech: 158
Size 1.09 GB
Completato 97x
Aggiunto 19.03.11 - 14:03:08
Uploader   darayava
Votazione (Voti: 0)


Condividi questo bittorrent:


html/blog:


bbcode/forum:


Tramite bookmarks:



Aggiungi Commento