* Dettagli Torrent   globale  | Commenti (0) 


- The Coca Cola Kid - Dusan Makavejev 1985 [ITA-ENG] -


Download via torrent:
                 
Categoria bittorrent DVDrip
Descrizione




IMDb:   http://www.imdb.com/title/tt0088931/





Titolo originale The Coca Cola Kid.
Durata 94 min.
Genere:  Commedia
Paese: Australia
Data di uscita:  1985.
Regia:      Dusan Makavejev
Sceneggiatura:     Frank Moorhouse
Musica:  William Motzing


Eric Roberts ... Becker
Greta Scacchi ... Terri
Bill Kerr ... T. George McDowell
Chris Haywood ... Kim
Kris McQuade ... Juliana
Max Gillies ... Frank Hunter
Tony Barry ... Bushman
Paul Chubb ... Fred
David Slingsby ... Waiter
Tim Finn ... Philip
Colleen Clifford ... Mrs. Haversham
Rebecca Smart ... DMZ
Esben Storm ... Country Hotel Manager
Steve Dodd ... Mr. Joe
Ian Gilmour ... Marjorie
David Argue ... Newspaper Vendor
Linda Nagle ... Marching Girl
.Julie Nihill ... Marching Girl
Fiona Hallett ... Marching Girl
Ricky Fataar ... Rock Musician
Mark Moffatt ... Rock Musician
Paul Hester ... Rock Musician
Rex Goh ... Rock Musician
Jane Markey ... Doris
Mick Conway ... Country Band
Palz Vaughan ... Country Band
Kim Cook ... Country Band
Jim Niven ... Country Band
Kim Constable ... Country Band
Angelo D'Angelo ... Projectionist
Gia Carides ... Chambermaid
David Bracks ... Santa
Ian Nimmo ... Santa
Scott J. Ateah ... Santa (as Scott Ateah)
Bernard Ledger ... Santa
Chris Hession ... Santa
Peter Armstrong ... Security Guard
David Roe ... Quarantine Officer
Pola ... Shirley
Deborah Conway ... Girl with Camera
Adam Bowen ... Flight Steward

Ex marine viene mandato in Australia per promuovere il consumo della Coca-Cola. Il suo entusiasmo ostacolato da un arzillo capitalista locale che produce un suo intruglio artigianale, deciso a non avere concorrenti. 4 film che il serbo D. Makavejev (Montenegro tango) riuscito a fare in 15 anni di esilio errabondo. Un po' incoerente ma buffo, rallegrato da musiche gradevoli, abitato da personaggi simpatici. La ciliegina del film G. Scacchi con il suo pimpante sessappiglio.

An eccentric marketing guru visits a Coca-Cola subsidiary in Australia to try and increase market penetration. He finds zero penetration in a valley owned by an old man who makes his own soft drinks, and visits the valley to see why. After "the Kid's" persistence is tested he's given a tour of the man's plant, and they begin talking of a joint venture. Things get more complicated when the Coca-Cola man begins falling in love with his temporary secretary, who seems to have connections to the valley.













General
Format                           : AVI
Format/Info                      : Audio Video Interleave
File size                        : 766 MiB
Duration                         : 1h 33mn
Overall bit rate                 : 1 146 Kbps
Movie name                       : The Coca Cola Kid
Director                         : VCDVaULT
Subject                          : The Coca Cola Kid

Video
ID                               : 0
Format                           : MPEG-4 Visual
Format settings, BVOP            : Yes
Format settings, QPel            : No
Format settings, GMC             : No warppoints
Format settings, Matrix          : Default (H.263)
Codec ID                         : XVID
Codec ID/Hint                    : XviD
Duration                         : 1h 33mn
Bit rate                         : 876 Kbps
Width                            : 576 pixels
Height                           : 304 pixels
Display aspect ratio             : 1.895
Frame rate                       : 25.000 fps
Resolution                       : 24 bits
Scan type                        : Progressive
Bits/(Pixel*Frame)               : 0.200
Stream size                      : 585 MiB (76%)

Audio #1  ITALIANO
ID                               : 1
Format                           : MPEG Audio
Format version                   : Version 1
Format profile                   : Layer 3
Codec ID                         : 55
Codec ID/Hint                    : MP3
Duration                         : 1h 33mn
Bit rate mode                    : Constant
Bit rate                         : 128 Kbps
Channel(s)                       : 2 channels
Sampling rate                    : 44.1 KHz
Resolution                       : 16 bits
Stream size                      : 85.3 MiB (11%)
Alignment                        : Aligned on interleaves
Interleave, duration             : 40 ms (1.00 video frame)
Interleave, preload duration     : 522 ms
Writing library                  : LAME3.95

Audio #2  ENGLISH
ID                               : 2
Format                           : MPEG Audio
Format version                   : Version 1
Format profile                   : Layer 3
Codec ID                         : 55
Codec ID/Hint                    : MP3
Duration                         : 1h 33mn
Bit rate mode                    : Constant
Bit rate                         : 128 Kbps
Channel(s)                       : 2 channels
Sampling rate                    : 44.1 KHz
Resolution                       : 16 bits
Stream size                      : 85.3 MiB (11%)
Alignment                        : Aligned on interleaves
Interleave, duration             : 40 ms (1.00 video frame)
Interleave, preload duration     : 522 ms
Writing library                  : LAME3.95
Info: Per scaricare devi usare un client come uTorrent, o Azureus
AnnounceURL
http://tracker.tntvillage.scambioetico.org:2710/announce
Hash 01c589946795fb2c5a26aae95f8abacb75bf5b5c
Peers seeds: 35 , leech: 132
Size 765.78 MB
Completato 57x
Aggiunto 23.03.11 - 08:03:10
Uploader   oracenelson
Votazione (Voti: 0)


Condividi questo bittorrent:


html/blog:


bbcode/forum:


Tramite bookmarks:



Aggiungi Commento