* Dettagli Torrent   globale  | Commenti (0) 


- Arco di Trionfo - Milestone [DivX - Ita Mp3] [TNTvillage] -


Download via torrent:
                 
Categoria bittorrent DVDrip
Descrizione
Arco di Trionfo - Milestone [DivX - Ita Mp3] [TNTvillage]

ARCO DI TRIONFO

Lewis Milestone










REGIA: Lewis Milestone
SCENEGGIATURA: Lewis Milestone, Harry Brown
FOTOGRAFIA: Russell Metty
MONTAGGIO: W. Duncan Mansfield
MUSICHE: Louis Gruenberg
PRODUZIONE: DAVID LEWIS PER ENTERPRISE PRODUCTIONS
DISTRIBUZIONE: GDB - SAN PAOLO AUDIOVISIVI (HOLLYWOOD)
PAESE: USA 1948
GENERE: Drammatico
DURATA: 114 Min
FORMATO: B/N 35 MM
SOGGETTO: romanzo "Arc de triomphe" di Erich Maria Remarque

INTERPRETI e RUOLI:
Charles Boyer -•- Dottor Madou
Ingrid Bergman -•- Joan Madou
Charles Laughton -• Haake
Louis Calhern -•- Coll. Boris Morosov
Ruth Warrick -•- Kate Bergstroem
Roman Bohnen -•- Dottor Veber
J. Edward Bromberg -•- Direttore Albergo
Stephen Bekassy -•- Alex
Curt Bois -•- Cameriere Tatuato
Ruth Nelson -•- Sig.Ra Fessier
Michael Romanoff -•- Alidze
Art Smith -•- Ispettore





Aiuto regia: Robert Aldrich
Gli abiti di Ingrid Bergman sono di Edith Head




A Parigi, nel 1938, con falso nome, sprovvisto di documenti e sotto l'incubo continuo di essere scovato dalla polizia e deportato, vive il dottor Ravic, perseguitato dal nazismo. Questi una sera, avendo incontrato una donna, Joan Madou, che per la morte dell'amante si trova in una situazione di squallida miseria e sta per suicidarsi, le presta il suo aiuto. Fra i due nasce un intenso amore, rotto bruscamente dalla cattura dell'uomo, che, caduto nelle reti della polizia, viene mandato in un campo di concentramento. Durante i tre mesi di assenza Joan non resiste alle lusinghe di un facoltoso innamorato e accetta la vita di lusso che questi le offre. Il rifugiato, al suo ritorno, deluso per il tradimento di Joan e preoccupato d'inseguire il suo persecutore nazista che riuscirà ad uccidere, abbandona la donna, combattuta tra l'amore che nutre per lui e la tirannia del facoltoso innamorato che non vuole perderla, e non torna a lei che per vederla spirare uccisa dall'amante. Nel frattempo è scoppiata la seconda guerra mondiale ed il medico, preso in un rastrellamento, viene mandato in un campo di concentramento.





Il film Arco di Trionfo non è niente di eccezionale. Però secondo me nel film la retorica, l'atmosfera mélo si sopportano molto meglio che nel romanzo, e questo grazie alla bellissima fotografia in bianco e nero di Russell Metty e soprattutto alla bravura ed al carisma dei tre interpreti principali: Charles Boyer è Ravic, Ingrid Bergman interpreta Joan Madou e un Charles Laughton, straordinario come sempre, nel ruolo di Haake, il diabolico ufficiale fa correre brividi lungo la spina dorsale soltanto a guardarlo. Specialmente quando sorride.
Due curiosità: l'aiuto regista era Robert Aldrich ed alla sceneggiatura partecipò, anche se non accreditato nei titoli di testa, lo scrittore Irwin Shaw.

"Gli esordi della resistenza antinazista visti attraverso i vetri fiammeggianti del melodramma. Eccellente interpretazione di Ingrid Bergman e una regia incisa ed efficace." [filmtv]












General
Complete name                    : 4rc0 d1 Tr10nf0.avi
Format                           : DivX
Format/Info                      : Hack of AVI
File size                        : 1.02 GiB
Duration                         : 1h 48mn
Overall bit rate                 : 1 338 Kbps

Video
ID                               : 0
Format                           : MPEG-4 Visual
Format settings, BVOP            : Yes
Format settings, QPel            : No
Format settings, GMC             : No warppoints
Format settings, Matrix          : Default (H.263)
Muxing mode                      : Packed bitstream
Codec ID                         : DX50
Codec ID/Hint                    : DivX 5
Duration                         : 1h 48mn
Bit rate                         : 1 201 Kbps
Width                            : 624 pixels
Height                           : 480 pixels
Display aspect ratio             : 1.300
Frame rate                       : 25.000 fps
Resolution                       : 8 bits
Colorimetry                      : 4:2:0
Scan type                        : Progressive
Bits/(Pixel*Frame)               : 0.160
Stream size                      : 934 MiB (90%)
Title                            : Video
Writing library                  : DivX 6.2.5 (UTC 2006-06-16)

Audio
ID                               : 1
Format                           : MPEG Audio
Format version                   : Version 1
Format profile                   : Layer 3
Codec ID                         : 55
Codec ID/Hint                    : MP3
Duration                         : 1h 48mn
Bit rate mode                    : Constant
Bit rate                         : 128 Kbps
Channel(s)                       : 2 channels
Sampling rate                    : 48.0 KHz
Stream size                      : 99.5 MiB (10%)
Alignment                        : Split accross interleaves
Interleave, duration             : 40 ms (1.00 video frame)
Interleave, preload duration     : 50 ms
Title                            : Audio

Visit http://www.tntvillage.scambioetico.org/
Info: Per scaricare devi usare un client come uTorrent, o Azureus
AnnounceURL
http://tracker.tntvillage.scambioetico.org:2710/announce
Hash f6393b6eebe37ddbbb0eb0a9a73eba23d27a9fef
Peers seeds: 3 , leech: 34
Size 1.02 GB
Completato 3x
Aggiunto 28.03.11 - 15:03:20
Uploader   darayava
Votazione (Voti: 0)


Condividi questo bittorrent:


html/blog:


bbcode/forum:


Tramite bookmarks:



Aggiungi Commento