* Dettagli Torrent   globale  | Commenti (4) 


- Machete 2010 iTALiAN MD BDRip XviD-TNZ[LordM] -


Download via torrent:
                 
Categoria bittorrent Screener
Descrizione


Titolo originale: Machete
Nazione: U.S.A.
Anno: 2010
Genere: Azione
Durata: 105'
Regia: Robert Rodriguez, Ethan Maniquis
Sito ufficiale: www.vivamachete.com
Sito italiano: www.machete.it

Cast: Danny Trejo, Jessica Alba, Michelle Rodriguez, Robert De Niro, Steven Seagal, Don Johnson, Tim Roth, Rose McGowan, Sacha Baron Cohen, Lindsay Lohan
Produzione: Overnight Films, Troublemaker Studios
Distribuzione: KeyFilms
Data di uscita: Venezia 2010
06 Maggio 2011 (cinema)



Code
       General
       Complete name                    : Machete.2010.iTALiAN.MD.BDRip.XviD-TNZ[LordM]\Machete.2010.iTALiAN.MD.BDRip.XviD-TNZ.CD2[LordM].avi
       Format                           : AVI
       Format/Info                      : Audio Video Interleave
       File size                        : 699 MiB
       Duration                         : 52mn 19s
       Overall bit rate                 : 1 867 Kbps
       Writing application              : VirtualDubMod 1.5.10.2 (build 2540/release)
       Writing library                  : VirtualDubMod build 2540/release

       Video
       ID                               : 0
       Format                           : MPEG-4 Visual
       Format profile                   : Advanced Simple@L5
       Format settings, BVOP            : 2
       Format settings, QPel            : No
       Format settings, GMC             : No warppoints
       Format settings, Matrix          : Default (MPEG)
       Codec ID                         : XVID
       Codec ID/Hint                    : XviD
       Duration                         : 52mn 19s
       Bit rate                         : 1 735 Kbps
       Width                            : 720 pixels
       Height                           : 384 pixels
       Display aspect ratio             : 1.875
       Frame rate                       : 23.976 fps
       Color space                      : YUV
       Chroma subsampling               : 4:2:0
       Bit depth                        : 8 bits
       Scan type                        : Progressive
       Compression mode                 : Lossy
       Bits/(Pixel*Frame)               : 0.262
       Stream size                      : 649 MiB (93%)
       Writing library                  : XviD 1.2.1 (UTC 2008-12-04)

       Audio
       ID                               : 1
       Format                           : MPEG Audio
       Format version                   : Version 1
       Format profile                   : Layer 3
       Mode                             : Joint stereo
       Mode extension                   : MS Stereo
       Codec ID                         : 55
       Codec ID/Hint                    : MP3
       Duration                         : 52mn 19s
       Bit rate mode                    : Variable
       Bit rate                         : 119 Kbps
       Channel(s)                       : 2 channels
       Sampling rate                    : 48.0 KHz
       Compression mode                 : Lossy
       Stream size                      : 44.6 MiB (6%)
       Alignment                        : Aligned on interleaves
       Interleave, duration             : 24 ms (0.58 video frame)
       Interleave, preload duration     : 508 ms

Info: Per scaricare devi usare un client come uTorrent, o Azureus
AnnounceURL
http://tracker.publicbt.org/announce
Hash a444dad18db9662883c682ecfa003b9d017b295a
Peers seeds: 235 , leech: 625
Size 1.36 GB
Completato 10x
Aggiunto 09.05.11 - 15:05:57
Uploader   goku666
Votazione (Voti: 3)


Condividi questo bittorrent:


html/blog:


bbcode/forum:


Tramite bookmarks:



Aggiungi Commento
Ultimi commenti
 coccinella100acecoccinella100ace   
e stupendo peccato che una boiata
15/05 23.10
 MrWolfMrWolf   
[color=red][size=4]V8 A7
PER CHI NON SA' ASPETTARE COME ME E' GUARDABILISSIMO... E PER GLI AMANTI DEL GENERE E' UN GRAN FILM!!!
15/05 18.26
 coccinella100acecoccinella100ace   
ottimo peccato che il film e fuori dalle righe di brutto na cazzata unica comunque grazie a chi a caricato
11/05 18.41
Tutti commenti (4)