* Dettagli Torrent   globale  | Commenti (0) 


- Il Rinascimento - I Medici, nascita di una dinastia [Xvid Ita Mp3] [TNTvillage] -


Download via torrent:
                 
Categoria bittorrent DVDrip
Descrizione
Il Rinascimento - I Medici, nascita di una dinastia [Xvid Ita Mp3] [TNTvillage]




I MEDICI

01. NASCITA DI UNA DINASTIA









Titolo: Medici (I) - Nascita Di Una Dinastia / Lorenzo Il Magnifico
Produttore:  CineHollywood
Genere:  Documentario
Anno di produzione:  2007
Durata:  125
Vietato ai minori:  T
Anno di produzione:  a colori
Codice area:  Area 0 (All)
Lingue:  Inglese, Italiano
Sottotitoli:  Italiano;Inglese
Formato video:  4:3






Documentario sulla famiglia simbolo del Rinascimento Italiano. Realizzato in Toscana e Marche con la participazione di 10.000 comparse racconta, come mai prima d'ora, 400 anni di storia di una dinastia tra le pi potenti e influenti d'Italia. Il DVD si divide in due parti: Nascita di una dinastia, da piccoli banchieri a potenti signori di Firenze (01). Poi l'attenzione focalizzata Lorenzo il Magnifico, figura carismatica, protettore delle arti, poeta e uomo chiave della rinascita culturale di quell'epoca (02).
















General
Complete name                    : Il Rinascimento - 01 - I Medici, nascita di una dinastia.avi
Format                           : AVI
Format/Info                      : Audio Video Interleave
File size                        : 400 MiB
Duration                         : 55mn 12s
Overall bit rate                 : 1 013 Kbps
Writing application              : VirtualDubMod 1.5.10.2 (build 2540/release)
Writing library                  : VirtualDubMod build 2540/release

Video
ID                               : 0
Format                           : MPEG-4 Visual
Format profile                   : Advanced Simple@L5
Format settings, BVOP            : No
Format settings, QPel            : No
Format settings, GMC             : No warppoints
Format settings, Matrix          : Default (H.263)
Codec ID                         : XVID
Codec ID/Hint                    : XviD
Duration                         : 55mn 12s
Bit rate                         : 875 Kbps
Width                            : 512 pixels
Height                           : 368 pixels
Display aspect ratio             : 1.391
Frame rate                       : 25.000 fps
Resolution                       : 8 bits
Colorimetry                      : 4:2:0
Scan type                        : Progressive
Bits/(Pixel*Frame)               : 0.186
Stream size                      : 345 MiB (86%)
Writing library                  : XviD 1.2.0SMP (UTC 2006-01-0

Audio
ID                               : 1
Format                           : MPEG Audio
Format version                   : Version 1
Format profile                   : Layer 3
Format_Settings_Mode             : Dual mono
Codec ID                         : 55
Codec ID/Hint                    : MP3
Duration                         : 55mn 12s
Bit rate mode                    : Constant
Bit rate                         : 128 Kbps
Channel(s)                       : 2 channels
Sampling rate                    : 48.0 KHz
Stream size                      : 50.5 MiB (13%)
Alignment                        : Aligned on interleaves
Interleave, duration             : 40 ms (1.00 video frame)
Interleave, preload duration     : 504 ms


Visit http://www.tntvillage.scambioetico.org/
Info: Per scaricare devi usare un client come uTorrent, o Azureus
AnnounceURL
http://tracker.tntvillage.scambioetico.org:2710/announce
Hash 0fc0db7236520c7e20880c18a0798b1cbe3993e5
Peers seeds: 29 , leech: 21
Size 399.84 MB
Completato 689x
Aggiunto 14.05.11 - 07:05:57
Uploader   darayava
Votazione (Voti: 0)


Condividi questo bittorrent:


html/blog:


bbcode/forum:


Tramite bookmarks:



Aggiungi Commento