* Dettagli Torrent   globale  | Commenti (0) 


- Il Rinascimento - Federico da Montefeltro [XviD Ita Mp3] [TNTvillage] -


Download via torrent:
                 
Categoria bittorrent DVDrip
Descrizione
Il Rinascimento - 18 - Federico da Montefeltro [XviD Ita Mp3] [TNTvillage]




FEDERICO DA MONTEFELTRO









Ean: 8009044644555
Supporto: Dvd
Produttore: Cinehollywood
Genere: Storia, Documentari
Data uscita: 02/08/2010
Lingue: Italiano
Colori: Colori
Anno di produzione: 2010
Area: Area 2 (Europa/Giappone)
Durata: 52'
Sottotitoli: Italiano
Formato Audio: Dolby Digital 2.0 - stereo
Sistema: PAL





Figura eclettica e ancora oggi magnetica, Federico da Montefeltro è uno fra i personaggi che hanno reso il Rinascimento epoca di rinnovamento e progresso. Nato a Gubbio nel giugno 1422, fu cultore del bello, umanista e mecenate capace di trasformare la corte di Urbino in un centro culturale attorno a cui ruotarono artisti e letterati. Uomo di fede incrollabile, brillò per la rapida carriera militare e per l'abilità politica. Oltre ad essere condottiero e statista, Federico mostrò di possedere anche grande umanità, interessandosi ai bisogni della gente e fondando il proprio governo sull'amore per i sudditi.
















General
Complete name                    : Il Rinascimento - 18 - Federico da Montefeltro.avi
Format                           : AVI
Format/Info                      : Audio Video Interleave
File size                        : 446 MiB
Duration                         : 52mn 21s
Overall bit rate                 : 1 189 Kbps
Writing application              : VirtualDubMod 1.5.10.2 (build 2540/release)
Writing library                  : VirtualDubMod build 2540/release

Video
ID                               : 0
Format                           : MPEG-4 Visual
Format profile                   : Advanced Simple@L5
Format settings, BVOP            : Yes
Format settings, QPel            : Yes
Format settings, GMC             : No warppoints
Format settings, Matrix          : Default (H.263)
Muxing mode                      : Packed bitstream
Codec ID                         : XVID
Codec ID/Hint                    : XviD
Duration                         : 52mn 21s
Bit rate                         : 1 020 Kbps
Width                            : 512 pixels
Height                           : 384 pixels
Display aspect ratio             : 4:3
Frame rate                       : 25.000 fps
Resolution                       : 8 bits
Colorimetry                      : 4:2:0
Scan type                        : Progressive
Bits/(Pixel*Frame)               : 0.207
Stream size                      : 382 MiB (86%)
Writing library                  : XviD 1.2.0SMP (UTC 2006-01-0

Audio
ID                               : 1
Format                           : MPEG Audio
Format version                   : Version 1
Format profile                   : Layer 3
Format_Settings_Mode             : Dual mono
Codec ID                         : 55
Codec ID/Hint                    : MP3
Duration                         : 52mn 21s
Bit rate mode                    : Constant
Bit rate                         : 160 Kbps
Channel(s)                       : 2 channels
Sampling rate                    : 48.0 KHz
Stream size                      : 59.9 MiB (13%)
Alignment                        : Aligned on interleaves
Interleave, duration             : 40 ms (1.00 video frame)
Interleave, preload duration     : 504 ms


Visit http://www.tntvillage.scambioetico.org/
Info: Per scaricare devi usare un client come uTorrent, o Azureus
AnnounceURL
http://tracker.tntvillage.scambioetico.org:2710/announce
Hash cd3ef481c69a29d3a26c9cf48832324b0a4d36ee
Peers seeds: 31 , leech: 12
Size 445.52 MB
Completato 468x
Aggiunto 14.05.11 - 07:05:38
Uploader   darayava
Votazione (Voti: 0)


Condividi questo bittorrent:


html/blog:


bbcode/forum:


Tramite bookmarks:



Aggiungi Commento