* Dettagli Torrent   globale  | Commenti (0) 


- Il Rinascimento - I Medici, il potere contro la verita [Xvid Ita Mp3] [TNTvillage] -


Download via torrent:
                 
Categoria bittorrent DVDrip
Descrizione
Il Rinascimento - I Medici, il potere contro la verita' [Xvid Ita Mp3] [TNTvillage]




I MEDICI

04. IL POTERE CONTRO LA VERIT└









Titolo: Medici (I) - I Papi Medicei / Il Potere Contro La VeritÓ
Produttore:  CineHollywood
Genere:  Documentario
Anno di produzione:  2007
Durata:  125
Vietato ai minori:  T
Anno di produzione:  a colori
Codice area:  Area 0 (All)
Lingue:  Inglese, Italiano
Sottotitoli:  Italiano;Inglese
Formato video:  4:3





Documentario sulla famiglia simbolo del Rinascimento Italiano. Realizzato in Toscana e Marche con la participazione di 10.000 comparse racconta, come mai prima d'ora, 400 anni di storia di una dinastia tra le pi˙ potenti e influenti d'Italia. Il DVD si divide in due parti: I Papi medicei (03) e il Potere contro la veritÓ (04).
















General
Complete name                    : Il Rinascimento - 04 - Il potere contro la verita'.avi
Format                           : AVI
Format/Info                      : Audio Video Interleave
File size                        : 397 MiB
Duration                         : 55mn 19s
Overall bit rate                 : 1 003 Kbps
Writing application              : VirtualDubMod 1.5.10.2 (build 2540/release)
Writing library                  : VirtualDubMod build 2540/release

Video
ID                               : 0
Format                           : MPEG-4 Visual
Format profile                   : Advanced Simple@L5
Format settings, BVOP            : Yes
Format settings, QPel            : Yes
Format settings, GMC             : No warppoints
Format settings, Matrix          : Default (H.263)
Muxing mode                      : Packed bitstream
Codec ID                         : XVID
Codec ID/Hint                    : XviD
Duration                         : 55mn 19s
Bit rate                         : 865 Kbps
Width                            : 512 pixels
Height                           : 384 pixels
Display aspect ratio             : 4:3
Frame rate                       : 25.000 fps
Resolution                       : 8 bits
Colorimetry                      : 4:2:0
Scan type                        : Progressive
Bits/(Pixel*Frame)               : 0.176
Stream size                      : 342 MiB (86%)
Writing library                  : XviD 1.2.0SMP (UTC 2006-01-0

Audio
ID                               : 1
Format                           : MPEG Audio
Format version                   : Version 1
Format profile                   : Layer 3
Format_Settings_Mode             : Dual mono
Codec ID                         : 55
Codec ID/Hint                    : MP3
Duration                         : 55mn 19s
Bit rate mode                    : Constant
Bit rate                         : 128 Kbps
Channel(s)                       : 2 channels
Sampling rate                    : 48.0 KHz
Stream size                      : 50.6 MiB (13%)
Alignment                        : Aligned on interleaves
Interleave, duration             : 40 ms (1.00 video frame)
Interleave, preload duration     : 504 ms


Visit http://www.tntvillage.scambioetico.org/
Info: Per scaricare devi usare un client come uTorrent, o Azureus
AnnounceURL
http://tracker.tntvillage.scambioetico.org:2710/announce
Hash d5da2cdaabcd3a59b5f32ad4208577cb0fc2cda0
Peers seeds: 37 , leech: 4
Size 396.71 MB
Completato 577x
Aggiunto 16.05.11 - 16:05:50
Uploader   darayava
Votazione (Voti: 0)


Condividi questo bittorrent:


html/blog:


bbcode/forum:


Tramite bookmarks:



Aggiungi Commento