* Dettagli Torrent   globale  | Commenti (0) 


- La cittadella (1964) [Divx Ita Mp3] [TNTvillage] -


Download via torrent:
Categoria bittorrent BDRip
Descrizione
La cittadella (1964) [Divx Ita Mp3] [TNTvillage]

LA CITTADELLA

(1964)






Paese: Italia
Anno: 1964
Formato: miniserie TV
Genere: sceneggiato televisivo tratto dal romanzo La cittadella
Puntate: 7
Durata: 500 min ca. (totale)
Lingua originale: italiano
Colore: bianco e nero
Audio: mono


Regia: Anton Giulio Majano
Soggetto: Archibald Joseph Cronin
Sceneggiatura: Anton Giulio Majano
Musiche: Ritz Ortolani
Produttore: RAI Radiotelevisione Italiana


Interpreti e personaggi:
Alberto Lupo - Andrew Manson
Anna Maria Guarnieri - Cristina Barlow
Carlo Hintermann - Denny
Laura Efrikian - Mary Boland
Eleonora Rossi Drago - Francis Lawrence
Loretta Goggi - Florrie
Nando Gazzolo - Freddie Hamson
Lida Ferro - Blodwen Page
Ferruccio De Ceresa - Stillman


Prima TV Italia:
dal 9 febbraio 1964
al 22 marzo 1964
Rete televisiva: Rai Programma Nazionale






La fiction racconta le commoventi avventure di un medico di provincia,
il dottor Andrew Manson, interpretato da Alberto Lupo,
impegnato a lavorare in un piccolo villaggio minerario del Galles.





La cittadella è uno sceneggiato televisivo tratto dall'omonimo romanzo
La cittadella (The Citadel) di Archibald Joseph Cronin.
Fu prodotto dalla RAI nel 1964 riscosse uno straordinario successo di pubblico.
















General
Complete name                    : [DivX.-.ITA].-.La.cittadella.-.[1964].-.[1.di.7].-.[A..Lupo.-.Guarnieri].avi
Format                           : AVI
Format/Info                      : Audio Video Interleave
File size                        : 692 MiB
Duration                         : 1h 31mn
Overall bit rate                 : 1 060 Kbps

Video
ID                               : 0
Format                           : MPEG-4 Visual
Format settings, BVOP            : No
Format settings, QPel            : No
Format settings, GMC             : No warppoints
Format settings, Matrix          : Default (H.263)
Codec ID                         : DX50
Codec ID/Hint                    : DivX 5
Duration                         : 1h 31mn
Bit rate                         : 918 Kbps
Width                            : 720 pixels
Height                           : 416 pixels
Display aspect ratio             : 16:9
Frame rate                       : 25.000 fps
Resolution                       : 8 bits
Colorimetry                      : 4:2:0
Scan type                        : Progressive
Bits/(Pixel*Frame)               : 0.123
Stream size                      : 600 MiB (87%)
Title                            : NeoVideo92CF
Writing library                  : DivX 5.0.3 (UTC 2003-01-24)

Audio
ID                               : 1
Format                           : MPEG Audio
Format version                   : Version 1
Format profile                   : Layer 3
Format_Settings_Mode             : Joint stereo / MS Stereo
Codec ID                         : 55
Codec ID/Hint                    : MP3
Duration                         : 1h 31mn
Bit rate mode                    : Constant
Bit rate                         : 128 Kbps
Channel(s)                       : 2 channels
Sampling rate                    : 48.0 KHz
Stream size                      : 83.6 MiB (12%)
Alignment                        : Split accross interleaves
Interleave, duration             : 24 ms (0.60 video frame)
Title                            : NeoSound92CF0


General
Complete name                    : [DivX.-.ITA].-.La.cittadella.-.[1964].-.[2.di.7].-.[A..Lupo.-.Guarnieri].avi
Format                           : AVI
Format/Info                      : Audio Video Interleave
File size                        : 690 MiB
Duration                         : 1h 14mn
Overall bit rate                 : 1 295 Kbps

Video
ID                               : 0
Format                           : MPEG-4 Visual
Format settings, BVOP            : No
Format settings, QPel            : No
Format settings, GMC             : No warppoints
Format settings, Matrix          : Default (H.263)
Codec ID                         : DX50
Codec ID/Hint                    : DivX 5
Duration                         : 1h 14mn
Bit rate                         : 1 154 Kbps
Width                            : 720 pixels
Height                           : 416 pixels
Display aspect ratio             : 16:9
Frame rate                       : 25.000 fps
Resolution                       : 8 bits
Colorimetry                      : 4:2:0
Scan type                        : Progressive
Bits/(Pixel*Frame)               : 0.154
Stream size                      : 615 MiB (89%)
Title                            : NeoVideo92CF
Writing library                  : DivX 5.0.5 (UTC 2003-04-24)

Audio
ID                               : 1
Format                           : MPEG Audio
Format version                   : Version 1
Format profile                   : Layer 3
Format_Settings_Mode             : Joint stereo / MS Stereo
Codec ID                         : 55
Codec ID/Hint                    : MP3
Duration                         : 1h 14mn
Bit rate mode                    : Constant
Bit rate                         : 128 Kbps
Channel(s)                       : 2 channels
Sampling rate                    : 48.0 KHz
Stream size                      : 68.3 MiB (10%)
Alignment                        : Split accross interleaves
Interleave, duration             : 24 ms (0.60 video frame)
Title                            : NeoSound92CF0


General
Complete name                    : [DivX.-.ITA].-.La.cittadella.-.[1964].-.[3.di.7].-.[A..Lupo.-.Guarnieri].avi
Format                           : AVI
Format/Info                      : Audio Video Interleave
File size                        : 691 MiB
Duration                         : 1h 15mn
Overall bit rate                 : 1 282 Kbps

Video
ID                               : 0
Format                           : MPEG-4 Visual
Format settings, BVOP            : No
Format settings, QPel            : No
Format settings, GMC             : No warppoints
Format settings, Matrix          : Default (H.263)
Codec ID                         : DX50
Codec ID/Hint                    : DivX 5
Duration                         : 1h 15mn
Bit rate                         : 1 141 Kbps
Width                            : 720 pixels
Height                           : 416 pixels
Display aspect ratio             : 16:9
Frame rate                       : 25.000 fps
Resolution                       : 8 bits
Colorimetry                      : 4:2:0
Scan type                        : Progressive
Bits/(Pixel*Frame)               : 0.152
Stream size                      : 615 MiB (89%)
Title                            : NeoVideo92CF
Writing library                  : DivX 5.0.5 (UTC 2003-04-24)

Audio
ID                               : 1
Format                           : MPEG Audio
Format version                   : Version 1
Format profile                   : Layer 3
Format_Settings_Mode             : Joint stereo / MS Stereo
Codec ID                         : 55
Codec ID/Hint                    : MP3
Duration                         : 1h 15mn
Bit rate mode                    : Constant
Bit rate                         : 128 Kbps
Channel(s)                       : 2 channels
Sampling rate                    : 48.0 KHz
Stream size                      : 69.0 MiB (10%)
Alignment                        : Split accross interleaves
Interleave, duration             : 24 ms (0.60 video frame)
Title                            : NeoSound92CF0


General
Complete name                    : [DivX.-.ITA].-.La.cittadella.-.[1964].-.[4.di.7].-.[A..Lupo.-.Guarnieri].avi
Format                           : AVI
Format/Info                      : Audio Video Interleave
File size                        : 690 MiB
Duration                         : 1h 7mn
Overall bit rate                 : 1 419 Kbps

Video
ID                               : 0
Format                           : MPEG-4 Visual
Format settings, BVOP            : No
Format settings, QPel            : No
Format settings, GMC             : No warppoints
Format settings, Matrix          : Default (H.263)
Codec ID                         : DX50
Codec ID/Hint                    : DivX 5
Duration                         : 1h 7mn
Bit rate                         : 1 278 Kbps
Width                            : 720 pixels
Height                           : 416 pixels
Display aspect ratio             : 16:9
Frame rate                       : 25.000 fps
Resolution                       : 8 bits
Colorimetry                      : 4:2:0
Scan type                        : Progressive
Bits/(Pixel*Frame)               : 0.171
Stream size                      : 621 MiB (90%)
Title                            : NeoVideo92CF
Writing library                  : DivX 5.0.5 (UTC 2003-04-24)

Audio
ID                               : 1
Format                           : MPEG Audio
Format version                   : Version 1
Format profile                   : Layer 3
Format_Settings_Mode             : Joint stereo / MS Stereo
Codec ID                         : 55
Codec ID/Hint                    : MP3
Duration                         : 1h 7mn
Bit rate mode                    : Constant
Bit rate                         : 128 Kbps
Channel(s)                       : 2 channels
Sampling rate                    : 48.0 KHz
Stream size                      : 62.3 MiB (9%)
Alignment                        : Split accross interleaves
Interleave, duration             : 24 ms (0.60 video frame)
Interleave, preload duration     : 45 ms
Title                            : NeoSound92CF0


General
Complete name                    : [DivX.-.ITA].-.La.cittadella.-.[1964].-.[5.di.7].-.[A..Lupo.-.Guarnieri].avi
Format                           : AVI
Format/Info                      : Audio Video Interleave
File size                        : 691 MiB
Duration                         : 1h 15mn
Overall bit rate                 : 1 287 Kbps

Video
ID                               : 0
Format                           : MPEG-4 Visual
Format settings, BVOP            : No
Format settings, QPel            : No
Format settings, GMC             : No warppoints
Format settings, Matrix          : Default (H.263)
Codec ID                         : DX50
Codec ID/Hint                    : DivX 5
Duration                         : 1h 15mn
Bit rate                         : 1 146 Kbps
Width                            : 720 pixels
Height                           : 416 pixels
Display aspect ratio             : 16:9
Frame rate                       : 25.000 fps
Resolution                       : 8 bits
Colorimetry                      : 4:2:0
Scan type                        : Progressive
Bits/(Pixel*Frame)               : 0.153
Stream size                      : 616 MiB (89%)
Title                            : NeoVideo92CF
Writing library                  : DivX 5.0.5 (UTC 2003-04-24)

Audio
ID                               : 1
Format                           : MPEG Audio
Format version                   : Version 1
Format profile                   : Layer 3
Format_Settings_Mode             : Joint stereo / MS Stereo
Codec ID                         : 55
Codec ID/Hint                    : MP3
Duration                         : 1h 15mn
Bit rate mode                    : Constant
Bit rate                         : 128 Kbps
Channel(s)                       : 2 channels
Sampling rate                    : 48.0 KHz
Stream size                      : 68.8 MiB (10%)
Alignment                        : Split accross interleaves
Interleave, duration             : 24 ms (0.60 video frame)
Title                            : NeoSound92CF0


General
Complete name                    : [DivX.-.ITA].-.La.cittadella.-.[1964].-.[6.di.7].-.[A..Lupo.-.Guarnieri].avi
Format                           : AVI
Format/Info                      : Audio Video Interleave
File size                        : 690 MiB
Duration                         : 56mn 22s
Overall bit rate                 : 1 710 Kbps

Video
ID                               : 0
Format                           : MPEG-4 Visual
Format settings, BVOP            : No
Format settings, QPel            : No
Format settings, GMC             : No warppoints
Format settings, Matrix          : Default (H.263)
Codec ID                         : DX50
Codec ID/Hint                    : DivX 5
Duration                         : 56mn 22s
Bit rate                         : 1 569 Kbps
Width                            : 720 pixels
Height                           : 416 pixels
Display aspect ratio             : 16:9
Frame rate                       : 25.000 fps
Resolution                       : 8 bits
Colorimetry                      : 4:2:0
Scan type                        : Progressive
Bits/(Pixel*Frame)               : 0.210
Stream size                      : 633 MiB (92%)
Title                            : NeoVideo92CF
Writing library                  : DivX 5.0.3 (UTC 2003-01-24)

Audio
ID                               : 1
Format                           : MPEG Audio
Format version                   : Version 1
Format profile                   : Layer 3
Format_Settings_Mode             : Joint stereo / MS Stereo
Codec ID                         : 55
Codec ID/Hint                    : MP3
Duration                         : 56mn 22s
Bit rate mode                    : Constant
Bit rate                         : 128 Kbps
Channel(s)                       : 2 channels
Sampling rate                    : 48.0 KHz
Stream size                      : 51.6 MiB (7%)
Alignment                        : Split accross interleaves
Interleave, duration             : 24 ms (0.60 video frame)
Interleave, preload duration     : 46 ms
Title                            : NeoSound92CF0


General
Complete name                    : [DivX.-.ITA].-.La.cittadella.-.[1964].-.[7.di.7].-.[A..Lupo.-.Guarnieri].avi
Format                           : AVI
Format/Info                      : Audio Video Interleave
File size                        : 689 MiB
Duration                         : 54mn 49s
Overall bit rate                 : 1 757 Kbps

Video
ID                               : 0
Format                           : MPEG-4 Visual
Format settings, BVOP            : No
Format settings, QPel            : No
Format settings, GMC             : No warppoints
Format settings, Matrix          : Default (H.263)
Codec ID                         : DX50
Codec ID/Hint                    : DivX 5
Duration                         : 54mn 49s
Bit rate                         : 1 616 Kbps
Width                            : 720 pixels
Height                           : 416 pixels
Display aspect ratio             : 16:9
Frame rate                       : 25.000 fps
Resolution                       : 8 bits
Colorimetry                      : 4:2:0
Scan type                        : Progressive
Bits/(Pixel*Frame)               : 0.216
Stream size                      : 634 MiB (92%)
Title                            : NeoVideo92CF
Writing library                  : DivX 5.0.3 (UTC 2003-01-24)

Audio
ID                               : 1
Format                           : MPEG Audio
Format version                   : Version 1
Format profile                   : Layer 3
Format_Settings_Mode             : Joint stereo / MS Stereo
Codec ID                         : 55
Codec ID/Hint                    : MP3
Duration                         : 54mn 49s
Bit rate mode                    : Constant
Bit rate                         : 128 Kbps
Channel(s)                       : 2 channels
Sampling rate                    : 48.0 KHz
Stream size                      : 50.2 MiB (7%)
Alignment                        : Split accross interleaves
Interleave, duration             : 24 ms (0.60 video frame)
Title                            : NeoSound92CF0


Visit http://www.tntvillage.scambioetico.org/
Info: Per scaricare devi usare un client come uTorrent, o Azureus
AnnounceURL
http://tracker.tntvillage.scambioetico.org:2710/announce
Hash cb417253d9df7ef47dff840d66bb59330ab13035
Peers seeds: 4 , leech: 0
Size 4.72 GB
Completato 116x
Aggiunto 26.08.11 - 21:08:38
Uploader   darayava
Votazione (Voti: 0)


Condividi questo bittorrent:


html/blog:


bbcode/forum:




Aggiungi Commento