* Dettagli Torrent   globale  | Commenti (0) 


- La presa di Roma 20 Settembre 1870 (Filoteo Alberini 1905) [Divx Mp3 Ita] [TNTvillage] -


Download via torrent:
                 
Categoria bittorrent DVDrip
Descrizione
La presa di Roma 20 Settembre 1870 (Filoteo Alberini 1905) [Divx Mp3 Ita] [TNTvillage]

LA PRESA DI ROMA
20 SETTEMBRE 1870


Filoteo Alberini









Lingua originale: Italiano
Paese: Italia
Anno: 1905
Durata: 10 min. circa (di cui restano 4 min.)
Colore: B/N (ultimo quadro colorato)
Audio: muto
Genere: storico
Regia: Filoteo Alberini
Casa di produzione: Alberini & Santoni
Scenografia: Augusto Cicognani





Ubaldo Maria Del Colle
Carlo Rosaspina





La presa di Roma, anche conosciuto come Bandiera bianca e La Breccia di Porta Pia, è un cortometraggio di Filoteo Alberini, prima pellicola proiettata pubblicamente in Italia, il 20 settembre 1905, nell'anniversario della presa di Roma.
Lungo 250 metri (una decina di minuti), contro i 40/60 tradizionali, costò ben 500 lire, oggi se ne conservano solamente 75 metri di pellicola, ovvero quattro minuti di proiezione. Per la presentazione ufficiale, Filoteo Alberini ottiene l'autorizzazione a effettuare la proiezione all'aperto su un grosso schermo piazzato proprio dinanzi a Porta Pia. Vi assistono migliaia di persone richiamate da una breve, ma intensa campagna pubblicitaria effettuata mediante la diffusione di volantini.
Come indicato nel bollettino della Alberini & Santoni, La presa di Roma è una "grande ricostruzione storica in sette quadri", di cui l'ultimo a colori, dell'assalto di Porta Pia condotto dai bersaglieri italiani dopo i vani tentativi di mediazione con le truppe pontificie. Alberini sviluppa l'idea di fondo dividendola in una serie di quadri, ognuno costituente una unità narrativa autonoma, che in virtù del montaggio ricostruiscono fatti e personaggi della storia italiana recente.
A tal fine, egli coinvolge Augusto Cicognani nella realizzazione delle scenografie di cartapesta utilizzate per i tre quadri ripresi in teatro di posa che si alternano a quelli girati in esterni dal vero che conferiscono un'inedita autenticità alle scene di massa. In definitiva La presa di Roma unisce il realismo della ricostruzione storica alla spettacolarità delle scene aprendo la strada, dal punto di vista sia formale che tematico, ai kolossal degli anni successivi in cui eccelle l'industria cinematografica italiana.

Nel 2005 per i cent'anni della pellicola, il film è stato ricostruito e restaurato dal Centro Sperimentale di Cinematografia della Cineteca Nazionale grazie ai duplicati negativi degli anni '30 dell'Istituto Luce comparati con le copie dei fotogrammi della Cineteca Nazionale di Roma, della Cineteca Italiana di Milano, del MOMA di New York e del National Film and Television Archive di Londra. L'ultimo fotogramma è stato fornito da Aldo Bernardini, storico collaboratore di Vittorio Martinelli sulla storia del cinema muto.















General
Complete name                    : La presa di Roma 20 Settembre 1870 (Filoteo Alberini 1905).avi
Format                           : DivX
Format/Info                      : Hack of AVI
File size                        : 53.0 MiB
Duration                         : 5mn 59s
Overall bit rate                 : 1 235 Kbps

Video
ID                               : 0
Format                           : MPEG-4 Visual
Format settings, BVOP            : Yes
Format settings, QPel            : No
Format settings, GMC             : No warppoints
Format settings, Matrix          : Default (H.263)
Muxing mode                      : Packed bitstream
Codec ID                         : DX50
Codec ID/Hint                    : DivX 5
Duration                         : 5mn 59s
Bit rate                         : 1 098 Kbps
Width                            : 704 pixels
Height                           : 544 pixels
Display aspect ratio             : 1.294
Frame rate                       : 25.000 fps
Resolution                       : 8 bits
Colorimetry                      : 4:2:0
Scan type                        : Progressive
Bits/(Pixel*Frame)               : 0.115
Stream size                      : 47.1 MiB (89%)
Title                            : Main
Writing library                  : DivX 6.7.0 (UTC 2007-09-20)

Audio
ID                               : 1
Format                           : MPEG Audio
Format version                   : Version 1
Format profile                   : Layer 3
Format_Settings_Mode             : Joint stereo / MS Stereo
Codec ID                         : 55
Codec ID/Hint                    : MP3
Duration                         : 5mn 59s
Bit rate mode                    : Constant
Bit rate                         : 128 Kbps
Channel(s)                       : 2 channels
Sampling rate                    : 44.1 KHz
Stream size                      : 5.49 MiB (10%)
Alignment                        : Split accross interleaves
Interleave, duration             : 40 ms (1.00 video frame)
Interleave, preload duration     : 500 ms
Title                            : Audio


Visit http://www.tntvillage.scambioetico.org/
Info: Per scaricare devi usare un client come uTorrent, o Azureus
AnnounceURL
http://tracker.tntvillage.scambioetico.org:2710/announce
Hash 4bed68765962fa1db365b06a1208a4aa9dbcb97a
Peers seeds: 31 , leech: 1
Size 52.96 MB
Completato 402x
Aggiunto 07.11.11 - 14:11:07
Uploader   darayava
Votazione (Voti: 0)


Condividi questo bittorrent:


html/blog:


bbcode/forum:


Tramite bookmarks:



Aggiungi Commento