* Dettagli Torrent   globale  | Commenti (0) 


- Giuliano Montaldo - Gli Occhiali D Oro [DivX - Ita Mp3] [TNTvillage] -


Download via torrent:
                 
Categoria bittorrent DVDrip
Descrizione
Giuliano Montaldo - Gli Occhiali D Oro [DivX - Ita Mp3] [TNTvillage]

GLI OCCHIALI D'ORO

Giuliano Montaldo








A Jewish family and a homosexual doctor suffer persecution in Fascist Italy. Based on a novel by Giorgio Bassani.



REGIA: Giuliano Montaldo
SCENEGGIATURA: Giuliano Montaldo, Nicola Badalucco, Antonella Grassi
ATTORI: Philippe Noiret, Rupert Everett, Stefania Sandrelli, Valeria Golino, Nicola Farron,
Roberto Herlitzka, Rade Markovic, Riccardo Diana, Anna Lezzi, Giovanni Rubin De Cervin,
Lavinia Segurini, Nanni Massa, Luca Zingaretti, Ivana Despotovic, Arianna Felloni
FOTOGRAFIA: Armando Nannuzzi
MONTAGGIO: Alfredo Muschietti
MUSICHE: Ennio Morricone
PRODUZIONE: LEO PESCAROLO PER L.P. FILM, PARADIS FILM, AVALA PROFILM, LE FILM DE L'OUEST, FR 3
DISTRIBUZIONE: D.M.V. (1987) - AVO FILM
PAESE: Italia 1987
GENERE: Drammatico
DURATA: 103 Min
FORMATO: Colore PANORAMICA, TELEcolor




Soggetto: dal romanzo omonimo di Giorgio Bassani

La prima stesura della sceneggiatura era di Nicola Badaluccio, Enrico Medioli e Valerio ZURLini.

Premio DAVID 1988 per MIGLIORE MUSICA ad Ennio Morricone.






Anche sulla Ferrara del 1938 la politica del regime imperante fa addensare le nubi minacciose e crudeli delle discriminazioni razziali. La locale comunità ebraica viene gradualmente respinta in un ghetto morale di umiliazioni e di vessatorie prepotenze. Davide Lattes, il narratore, un universitario sensibile e colto, sembra presentire - a differenza della sua stessa famiglia (che è israelita) - ciò che si sta preparando per l'Italia e in Europa. Egli vive una sua storia d'amore con Nora, ebrea come lui, una storia che però si concluderà con l'abbandono da parte di lei, decisa a farsi battezzare e a convolare a nozze con un gerarca fascista, pur di sfuggire a un destino ormai più che probabile. Ma Davide è, allo stesso tempo, il testimone dell'amara vicenda che vede protagonista il dottor Fadigati, un medico stimatissimo in città e di larga clientela borghese, il quale, omosessuale, è preso dalla passione per Eraldo, un giovane biondo, compagno di università del narratore. Poco a poco anche il medico sarà come ghettizzato, resterà senza i suoi pazienti e si ridurrà, isolato e impoverito nella sua stessa città, dopo essere stato non solo abbandonato da Eraldo, ma da quest'ultimo anche derubato e pubblicamente preso a pugni. Nello scandalo che ne consegue, resta al medico, con la consapevolezza della sopravvenuta solitudine, solo la comprensione e la pietà di Davide, fino al suicidio nel Po, presso Pontelagoscuro...




La storia, tratta da una delicato racconto di Giorgio Bassani, è ambientata nella città di Ferrara nel 1938 quando le leggi razziali innescano una sempre più pesante atmosfera di umiliazioni e prepotenze nei confronti della comunità ebraica. Su questo sfondo si dipanano due vicende di amore e di emarginazione: quella dell’amore tra i giovani ebrei Davide e Nora che si concluderà quando Nora, impaurita dalla violenza che sente montare, si farà battezzare e sposerà un gerarca fascista, e quella della passione omosessuale di un affermato medico per un giovane ebreo. (Unione delle Comunità Ebraiche Italiane)







Giuliano Montaldo (Genova, 22 febbraio 1930) è un regista, sceneggiatore e attore italiano.
Dopo alcune esperienze come attore (Achtung! Banditi!, 1952; Cronache di poveri amanti, 1954, entrambi di Carlo Lizzani e La donna del giorno, 1956 di Francesco Maselli, esordì come regista con Tiro al piccione (1961) e proseguì con Una bella grinta (1965), ma ottenne successo con produzioni meno impegnate.
Frequenta la trattoria Fratelli Menghi punto d’incontro per pittori, poeti, ma soprattutto giovani registi e sceneggiatori come, Ugo Pirro, Franco Solinas, Giuseppe De Santis e Mario Monicelli.
Affrontò poi una trilogia spettacolare sul potere: Gott mit uns (1970), Sacco e Vanzetti (1971) e Giordano Bruno (1973), rispettivamente sul potere militare, giudiziario e religioso.
Con L'Agnese va a morire (1976) tornò al tema della Resistenza, passando poi ad esperienze televisive con Circuito chiuso (197, con il colossale Marco Polo (1982) e altri lavori sperimentali sul sistema ad alta definizione.
Tra gli altri film ricordiamo Gli occhiali d'oro (1987), Il giorno prima (1987), Tempo di uccidere (1989), Le stagioni dell’aquila (199, I demoni di San Pietroburgo (200.













General
Complete name                    : /Volumes/Dario/Giuliano Montaldo - Gli Occhiali Doro.avi
Format                           : AVI
Format/Info                      : Audio Video Interleave
File size                        : 1 011 MiB
Duration                         : 1h 41mn
Overall bit rate                 : 1 399 Kbps

Video
ID                               : 0
Format                           : MPEG-4 Visual
Format settings, BVOP            : No
Format settings, QPel            : No
Format settings, GMC             : No warppoints
Format settings, Matrix          : Default (H.263)
Codec ID                         : DX50
Codec ID/Hint                    : DivX 5
Duration                         : 1h 41mn
Bit rate                         : 1 197 Kbps
Width                            : 640 pixels
Height                           : 460 pixels
Display aspect ratio             : 1.391
Frame rate                       : 25.000 fps
Resolution                       : 8 bits
Colorimetry                      : 4:2:0
Scan type                        : Progressive
Bits/(Pixel*Frame)               : 0.163
Stream size                      : 865 MiB (86%)
Writing library                  : DivX 5.1.1 (Maupiti) (UTC 2003-11-19)

Audio
ID                               : 1
Format                           : MPEG Audio
Format version                   : Version 1
Format profile                   : Layer 3
Codec ID                         : 55
Codec ID/Hint                    : MP3
Duration                         : 1h 41mn
Bit rate mode                    : Constant
Bit rate                         : 192 Kbps
Channel(s)                       : 2 channels
Sampling rate                    : 44.1 KHz
Video delay                      : 26ms
Stream size                      : 139 MiB (14%)
Alignment                        : Split accross interleaves
Interleave, duration             : 40 ms (1.00 video frame)
Title                            : Audio Stream


Visit http://www.tntvillage.org/
Info: Per scaricare devi usare un client come uTorrent, o Azureus
AnnounceURL
http://tracker.tntvillage.scambioetico.org:2710/announce
Hash 8f347e55d5c8e69cf886846ad17133b689768a0e
Peers seeds: 3 , leech: 1
Size 0.99 GB
Completato 3637x
Aggiunto 20.01.12 - 21:01:32
Uploader   darayava
Votazione (Voti: 0)


Condividi questo bittorrent:


html/blog:


bbcode/forum:


Tramite bookmarks:



Aggiungi Commento