* Dettagli Torrent   globale  | Commenti (0) 


- Supernatural S08e01 - We Need to Talk About Kevin [HDTV - XviD - English Mp3 - Sub Italian] By okuto -


Download via torrent:
                 
Categoria bittorrent SerieTv
Descrizione
Supernatural S08e01 - We Need to Talk About Kevin [HDTV - XviD - English Mp3 - Sub Italian] By okuto MIRCrew








Sottotitoli italiani a cura di okuto che ringrazio

Episodi presenti:

01 - We Need to Talk About Kevin



Titolo originale Supernatural
Paese Stati Uniti d'America
Anno 2005 in produzione
Formato serie TV
Genere horror, thriller, fantasy
Stagioni 8
Episodi 149+++++
Durata 45 minuti (episodio)
Lingua originale inglese
Caratteristiche tecniche
Aspect ratio 16:9
Ideatore Eric Kripke
Produttore Kripke Enterprises, Wonderland Sound and Vision e Warner Bros. Television





Jared Padalecki: Sam Winchester
   Jensen Ackles: Dean Winchester
   Katie Cassidy: Ruby
   Lauren Cohan: Bela Talbot
   Misha Collins: Castiel

Doppiatori e personaggi

   David Chevalier: Sam Winchester
   Stefano Crescentini: Dean Winchester
   Domitilla D'Amico: Ruby
   Myriam Catania: Bela Talbot
   Vittorio Guerrieri: Castiel


1 We Need to Talk About Kevin
2 What's Up, Tiger Mommy?
3 Heartache
4 Bitten
5 Blood Brother
6 Southern Comfort
7 A Little Slice of Kevin
8 Hunteri Heroici
9 Citizen Fang
10 Tom and Frayed
-
-
-
-
-






Sam e Dean si riuniscono dopo un anno di distanza - Dean riemerge dal Purgatorio, ma non solo. Si dirige dritto da Sam, ma la reunion non esattamente quello che pensava sarebbe stato.

Per Sam ritornare con il fratello, lasciando la vita che si era creato risulta essere pi difficile di quanto si immaginava. Dean e Sam cercano Kevin (guest star Osric Chau), che riuscito

a fuggire da Crowley (guest star Mark Sheppard) presa, ma le cose precipitano rapidamente quando Kevin dice loro che cosa vuole Crowley.






DATI FILE:

General
Complete name                    : Supernatural - 8x01 - We Need To Talk About Kevin.HDTV.XviD (Sub Ita by okuto).avi
Format                           : AVI
Format/Info                      : Audio Video Interleave
File size                        : 345 MiB
Duration                         : 41mn 59s
Overall bit rate                 : 1 149 Kbps
Writing library                  : VirtualDub build 32842/release

Video
ID                               : 0
Format                           : MPEG-4 Visual
Format profile                   : Advanced Simple@L5
Format settings, BVOP            : Yes
Format settings, QPel            : No
Format settings, GMC             : No warppoints
Format settings, Matrix          : Default (H.263)
Muxing mode                      : Packed bitstream
Codec ID                         : XVID
Codec ID/Hint                    : XviD
Duration                         : 41mn 59s
Bit rate                         : 1 008 Kbps
Width                            : 640 pixels
Height                           : 360 pixels
Display aspect ratio             : 16:9
Frame rate                       : 23.976 fps
Color space                      : YUV
Chroma subsampling               : 4:2:0
Bit depth                        : 8 bits
Scan type                        : Progressive
Bits/(Pixel*Frame)               : 0.183
Stream size                      : 303 MiB (88%)
Writing library                  : XviD 1.1.2 (UTC 2006-11-01)

Audio
ID                               : 1
Format                           : MPEG Audio
Format version                   : Version 1
Format profile                   : Layer 3
Mode                             : Joint stereo
Mode extension                   : MS Stereo
Codec ID                         : 55
Codec ID/Hint                    : MP3
Duration                         : 41mn 58s
Bit rate mode                    : Variable
Bit rate                         : 128 Kbps
Channel(s)                       : 2 channels
Sampling rate                    : 48.0 KHz
Stream size                      : 38.4 MiB (11%)
Alignment                        : Aligned on interleaves
Interleave, duration             : 24 ms (0.58 video frame)
Interleave, preload duration     : 490 ms








Info: Per scaricare devi usare un client come uTorrent, o Azureus
AnnounceURL
http://tracker.tntvillage.scambioetico.org:2710/announce
Hash 166ce88f582730cae636f194f6c9e8ad0d3e4c7c
Peers seeds: 15 , leech: 6
Size 345.03 MB
Completato 136x
Aggiunto 06.12.12 - 11:12:41
Uploader   robbyrs
Votazione (Voti: 0)


Condividi questo bittorrent:


html/blog:


bbcode/forum:


Tramite bookmarks:



Aggiungi Commento