* Dettagli Torrent   globale  | Commenti (1) 


- Una Poltrona Per Due [XviD - Italian English Ac3 - Sub Ita] -


Download via torrent:
                 
Categoria bittorrent DVDrip
Descrizione
Trading Places (1983) - Una Poltrona Per Due [XviD - Italian English Ac3 - Sub Ita] MIRCrew [TNT Village]


Una Poltrona Per Due - Trading Places (1983) [XviD - Italian English Ac3 - Sub Ita] MIRCrew [TNT Village]





Una Poltrona Per Due - Trading Places (1983)


 





Titolo originale Trading Places
Paese di produzione USA
Anno 1983
Durata 117 min
Genere commedia
Regia John Landis
Soggetto Timothy Harris, Herschel Weingrod
Sceneggiatura Timothy Harris, Herschel Weingrod
Fotografia Robert Paynter
Montaggio Malcolm Campbell
Musiche Elmer Bernstein









   Dan Aykroyd: Louis Winthorpe III
   Eddie Murphy: Billy Ray Valentine
   Ralph Bellamy: Randolph Duke
   Don Ameche: Mortimer Duke
   Denholm Elliott: Coleman
   Jamie Lee Curtis: Ophelia
   Paul Gleason: Clarence Beeks
   Frank Oz: poliziotto corrotto
   James Belushi: Harvey (l'uomo travestito da gorilla)
   Bo Diddley: proprietario di un monte dei pegni

Doppiatori italiani

   Mauro Gravina: Louis Winthorpe III
   Tonino Accolla: Billy Ray Valentine
   Sergio Fiorentini: Randolph Duke
   Carlo Reali: Mortimer Duke
   Paolo Buglioni: Coleman
   Simona Izzo: Ophelia
   Paolo Poiret: Clarence Beeks
   Frank Oz: poliziotto corrotto
   Renato Cortesi: Harvey





Louis Winthorpe III è un agente di cambio di beni di consumo di successo, nonché esponente della Filadelfia "bene". La sua vita trascorre tranquilla tra il lavoro, le partite di tennis al

circolo e le serate con la fidanzata. Il lavoro di broker presso la società Duke & Duke gli permette di vivere in una splendida villa e di godere dei servigi del maggiordomo Coleman. Billie

Ray Valentine è invece uno straccione, che mendica elemosina per strada simulando di aver perso le gambe durante la guerra del Vietnam. Le vite dei due si incrociano casualmente, quando

Billie Ray viene arrestato a causa di un equivoco: in seguito ad uno scontro fortuito, Louis crede di essere aggredito dallo stesso e spaventato chiede l'intervento dei poliziotti........



STORYLINE

Louis Winthorpe is a businessman who works for commodities brokerage firm of Duke and Duke owned by the brothers Mortimer and Randolph Duke. Now they bicker over the most trivial of matters

and what they are bickering about is whether it's a person's environment or heredity that determines how well they will do in life. When Winthorpe bumps into Billy Ray Valentine, a street

hustler and assumes he is trying to rob him, he has him arrested. Upon seeing how different the two men are, the brothers decide to make a wager as to what would happen if Winthorpe loses

his job, his home and is shunned by everyone he knows and if Valentine was given Winthorpe's job. So they proceed to have Winthorpe arrested and to be placed in a compromising position in

front of his girlfriend.................







General
Complete name                    : \Una Poltrona Per Due - Trading Places (1983)\Una Poltrona Per Due (1983).avi
Format                           : AVI
Format/Info                      : Audio Video Interleave
File size                        : 1.64 GiB
Duration                         : 1h 51mn
Overall bit rate                 : 2 108 Kbps
Writing application              : FairUse Wizard
Writing library                  : The best and REALLY easy backup tool

Video
ID                               : 0
Format                           : MPEG-4 Visual
Format profile                   : Advanced Simple@L5
Format settings, BVOP            : Yes
Format settings, QPel            : No
Format settings, GMC             : No warppoints
Format settings, Matrix          : Default (H.263)
Muxing mode                      : Packed bitstream
Codec ID                         : XVID
Codec ID/Hint                    : XviD
Duration                         : 1h 51mn
Bit rate                         : 1 453 Kbps
Width                            : 688 pixels
Height                           : 384 pixels
Display aspect ratio             : 16:9
Frame rate                       : 25.000 fps
Color space                      : YUV
Chroma subsampling               : 4:2:0
Bit depth                        : 8 bits
Scan type                        : Progressive
Bits/(Pixel*Frame)               : 0.220
Stream size                      : 1.13 GiB (69%)
Writing library                  : XviD 1.2.0.dev47 (UTC 2006-11-01)

Audio #1
ID                               : 1
Format                           : AC-3
Format/Info                      : Audio Coding 3
Mode extension                   : CM (complete main)
Codec ID                         : 2000
Duration                         : 1h 51mn
Bit rate mode                    : Constant
Bit rate                         : 192 Kbps
Channel(s)                       : 2 channels
Channel positions                : Front: L R
Sampling rate                    : 48.0 KHz
Bit depth                        : 16 bits
Stream size                      : 153 MiB (9%)
Alignment                        : Split accross interleaves
Interleave, duration             : 40 ms (1.00 video frame)
Interleave, preload duration     : 500 ms

Audio #2
ID                               : 2
Format                           : AC-3
Format/Info                      : Audio Coding 3
Mode extension                   : CM (complete main)
Codec ID                         : 2000
Duration                         : 1h 51mn
Bit rate mode                    : Constant
Bit rate                         : 448 Kbps
Channel(s)                       : 6 channels
Channel positions                : Front: L C R, Side: L R, LFE
Sampling rate                    : 48.0 KHz
Bit depth                        : 16 bits
Stream size                      : 358 MiB (21%)
Alignment                        : Split accross interleaves
Interleave, duration             : 40 ms (1.00 video frame)
Interleave, preload duration     : 500 ms










Info: Per scaricare devi usare un client come uTorrent, o Azureus
AnnounceURL
http://tracker.tntvillage.scambioetico.org:2710/announce
Hash 1439e7ff223b577b5348e22ac52c1dec727331b0
Peers seeds: 163 , leech: 117
Size 1.65 GB
Completato 1169x
Aggiunto 22.12.12 - 17:12:31
Uploader   robbyrs
Votazione (Voti: 1)


Condividi questo bittorrent:


html/blog:


bbcode/forum:


Tramite bookmarks:



Aggiungi Commento
Ultimi commenti
 GatesukaGatesuka   
Il film di Natale per eccellenza, e in ligua originale è pure meglio: grazie
22/12 18.51
Tutti commenti (1)