* Dettagli Torrent   globale  | Commenti (1) 


- L Alba Dei Morti Viventi [XviD - Italian English Ac3 5.1 - Sub Ita Eng] Bonus 37m. Reportage MIRCr -


Download via torrent:
                 
Categoria bittorrent DVDrip
Descrizione
Dawn Of The Dead (2004) - L'Alba Dei Morti Viventi [XviD - Italian English Ac3 5.1 - Sub Ita Eng] + Bonus 37m. Reportage MIRCrew [TNT Village]


L'Alba Dei Morti Viventi - Dawn Of The Dead (2004) [XviD - Italian English Ac3 5.1 - Sub Ita Eng] + Bonus 37m. Reportage MIRCrew [TNT Village]




*********************************************



 

Incluso 38 minuti di inserti speciali, Reportage - in inglese sottotitolati in italiano - ENG SUB Italian







Titolo originale Dawn of the Dead
Paese di produzione USA

L'alba dei morti viventi è un film del 2004 diretto da Zack Snyder, remake del film Zombi di George Romero.

Anno 2004
Durata 104 min
Rapporto 2.35:1
Genere horror
Regia Zack Snyder
Sceneggiatura James Gunn
Fotografia Matthew F. Leonetti
Montaggio Niven Howie
Musiche Tyler Bates



*********************



   Jake Weber: Michael
   Sarah Polley: Ana
   Ving Rhames: Kenneth
   Mekhi Phifer: Andre
   Ty Burrell: Steve
   Michael Kelly: C.J
   Kevin Zegers: Terry
   Michael Barry: Bart
   Lindy Booth: Nicole
   Jayne Eastwood: Norma
   Boyd Banks: Tucker
   Justin Louis: Louis
   Inna Korobnika: Luda
   R. D. Reid: Glen
   Kim Poirier: Monica

Doppiatori italiani

   Tiziana Avarista: Ana
   Claudio Fattoretto: Kenneth
   Massimo De Ambrosis: Michael
   Simone Mori: Andre
   Massimo Lodolo: Steve
   Francesco Pannofino: C.J.
   Fabrizio Manfredi: Terry
   Mirko Mazzanti: Bart
   Michela Alborghetti: Nicole
   Miranda Bonansea: Norma
   Angelo Nicotra: Tucker
   Riccardo Rossi: Louis
   Rossella Acerbo: Luda
   Sandro Pellegrini: Glen












Una strana e sconosciuta epidemia trasforma nel giro di una notte le persone in zombi cannibali. Gran parte della popolazione è stata uccisa o infettata dalle orde di cadaveri,

costantemente affamati di carne umana. Un'infermiera diplomata scampa a stento dall'aggressione di suo marito, infettato da Vivian, la figlia dei vicini. Fugge quindi per la città sul Lago

Michigan, assistendo ad una catastrofe divenuta mondiale. Nei titoli di testa scorrono, infatti, immagini televisive di soldati e speaker sopraffatti dagli zombi in tutto il mondo. Si

decide di terminare definitivamente le trasmissioni con l'apparizione di un personaggio afroamericano che recita la celebre frase: quando non ci sarà più posto all'inferno, i morti

cammineranno sulla terra......................

Storyline:

Ana, a young beautiful nurse finishes her day-shift at the hospital to return home to her beloved husband, they make love and sleep together. The next day, after her husband is killed by

her neighbor next door, he suddenly comes back to life. She discovers the chaos happening in her neighborhood and escapes from her home. Soon after coming to her senses in the woods, she

encounters a cop and other survivors, they decide to find safety in a mall. Soon more survivors come, and they learn that if they want to stay alive, they should stick together as the world

is overrun by an army of undead. Can they survive the horror in this horrific global chaos? When there is no more room in hell, the dead will walk the earth.......

Screenshot inserti speciali - Bonus

reportage durata 38 minuti circa in inglese con sottotitoli italiani














The Movie

General
Complete name                    : L'Alba Dei Morti Viventi - Dawn Of The Dead (2004) + Bonus Reportage\L'alba Dei Morti Viventi - Dawn Of The Dead (2004).avi
Format                           : AVI
Format/Info                      : Audio Video Interleave
File size                        : 1.95 GiB
Duration                         : 1h 44mn
Overall bit rate                 : 2 662 Kbps
Writing application              : VirtualDubMod 1.5.10.2 (build 2540/release)
Writing library                  : VirtualDubMod build 2540/release

Video
ID                               : 0
Format                           : MPEG-4 Visual
Format profile                   : Simple@L1
Format settings, BVOP            : No
Format settings, QPel            : No
Format settings, GMC             : No warppoints
Format settings, Matrix          : Default (H.263)
Codec ID                         : DX50
Codec ID/Hint                    : DivX 5
Duration                         : 1h 44mn
Bit rate                         : 1 752 Kbps
Width                            : 720 pixels
Height                           : 304 pixels
Display aspect ratio             : 2.35:1
Frame rate                       : 25.000 fps
Color space                      : YUV
Chroma subsampling               : 4:2:0
Bit depth                        : 8 bits
Scan type                        : Interlaced
Scan order                       : Top Field First
Bits/(Pixel*Frame)               : 0.320
Stream size                      : 1.28 GiB (66%)
Writing library                  : Lavc52.30.1

Audio #1
ID                               : 1
Format                           : AC-3
Format/Info                      : Audio Coding 3
Mode extension                   : CM (complete main)
Codec ID                         : 2000
Duration                         : 1h 44mn
Bit rate mode                    : Constant
Bit rate                         : 448 Kbps
Channel(s)                       : 6 channels
Channel positions                : Front: L C R, Side: L R, LFE
Sampling rate                    : 48.0 KHz
Bit depth                        : 16 bits
Stream size                      : 336 MiB (17%)
Alignment                        : Split accross interleaves
Interleave, duration             : 40 ms (1.00 video frame)
Interleave, preload duration     : 500 ms

Audio #2
ID                               : 2
Format                           : AC-3
Format/Info                      : Audio Coding 3
Mode extension                   : CM (complete main)
Codec ID                         : 2000
Duration                         : 1h 44mn
Bit rate mode                    : Constant
Bit rate                         : 448 Kbps
Channel(s)                       : 2 channels
Channel positions                : Front: L R
Sampling rate                    : 48.0 KHz
Bit depth                        : 16 bits
Stream size                      : 336 MiB (17%)
Alignment                        : Split accross interleaves
Interleave, duration             : 40 ms (1.00 video frame)
Interleave, preload duration     : 500 ms

report bonus

General
Complete name                    : Bonus - Reportage.avi
Format                           : AVI
Format/Info                      : Audio Video Interleave
File size                        : 339 MiB
Duration                         : 37mn 26s
Overall bit rate                 : 1 266 Kbps
Writing application              : VirtualDubMod 1.5.10.2 (build 2540/release)
Writing library                  : VirtualDubMod build 2540/release

Video
ID                               : 0
Format                           : MPEG-4 Visual
Format profile                   : Advanced Simple@L5
Format settings, BVOP            : Yes
Format settings, QPel            : No
Format settings, GMC             : No warppoints
Format settings, Matrix          : Default (H.263)
Codec ID                         : XVID
Codec ID/Hint                    : XviD
Duration                         : 37mn 26s
Bit rate                         : 809 Kbps
Width                            : 544 pixels
Height                           : 400 pixels
Display aspect ratio             : 4:3
Frame rate                       : 25.000 fps
Color space                      : YUV
Chroma subsampling               : 4:2:0
Bit depth                        : 8 bits
Scan type                        : Progressive
Bits/(Pixel*Frame)               : 0.149
Stream size                      : 217 MiB (64%)
Writing library                  : XviD 1.1.2 (UTC 2006-11-01)

Audio
ID                               : 1
Format                           : AC-3
Format/Info                      : Audio Coding 3
Mode extension                   : CM (complete main)
Codec ID                         : 2000
Duration                         : 37mn 23s
Bit rate mode                    : Constant
Bit rate                         : 448 Kbps
Channel(s)                       : 2 channels
Channel positions                : Front: L R
Sampling rate                    : 48.0 KHz
Bit depth                        : 16 bits
Video delay                      : 24ms
Stream size                      : 120 MiB (35%)
Alignment                        : Split accross interleaves
Interleave, duration             : 40 ms (1.00 video frame)
Interleave, preload duration     : 500 ms




Info: Per scaricare devi usare un client come uTorrent, o Azureus
AnnounceURL
http://tracker.tntvillage.scambioetico.org:2710/announce
Hash 5da145799f6ebc129ec7b172d61b6356bf97bbe2
Peers seeds: 40 , leech: 97
Size 2.28 GB
Completato 382x
Aggiunto 02.04.13 - 17:04:11
Uploader   robbyrs
Votazione (Voti: 0)


Condividi questo bittorrent:


html/blog:


bbcode/forum:


Tramite bookmarks:



Aggiungi Commento
Ultimi commenti
 pulipuli   
mitico!!!!
03/04 08.42
Tutti commenti (1)