* Dettagli Torrent   globale  | Commenti (0) 


- The Dead Zone - La Zona Morta (1983) David Cronenberg - Stephen King [XviD - Italian English Ac3 - S -


Download via torrent:
                 
Categoria bittorrent DVDrip
Descrizione
The Dead Zone - La Zona Morta (1983) David Cronenberg - Stephen King [XviD - Italian English Ac3 - Sub Ita] MIRCrew



La Zona Morta - The Dead Zone (1983) David Cronenberg - Stephen King [XviD - Italian English Ac3 - Sub Ita] MIRCrew














Titolo originale The Dead Zone
Lingua originale inglese
Paese di produzione USA
Anno 1983
Durata 103 min
Rapporto 1.85 : 1
Genere drammatico, thriller, horror
Regia David Cronenberg
Soggetto Stephen King (romanzo)
Sceneggiatura Jeffrey Boam
Produttore Debra Hill
Produttore esecutivo Dino De Laurentiis
Casa di produzione Dino De Laurentiis Company, Lorimar Film Entertainment
Distribuzione (Italia) Astro Distribuzione
Fotografia Mark Irwin
Montaggio Ronald Sanders
Effetti speciali Gianico Pretto, David Zimmerman, Clark Johnson
Musiche Michael Kamen
Scenografia Carol Spier
Costumi Olga Dimitrov
Trucco Jenny Arbour
Sfondi Myles Roth






   Saturn Award nella categoria "miglior film horror"
   Critics Award all'Avoriaz Fantastic Film Festival per David Cronenberg
   Audience Award al FantaFestival a David Cronenberg come "miglior regista" e "miglior film"















   Christopher Walken: Johnny Smith
   Brooke Adams: Sarah Bracknell
   Tom Skerritt: sceriffo Bannerman
   Herbert Lom: dottor Sam Weizak
   Anthony Zerbe: Roger Stuart
   Colleen Dewhurst: Henrietta Dodd
   Martin Sheen: Greg Stillson
   Jackie Burroughs: Vera Smith
   William B. Davis: autista dell'ambulanza

Doppiatori italiani

   Claudio De Davide: Johnny Smith
   Antonella Rinaldi: Sarah Bracknell
   Giorgio Bandiera: sceriffo Bannerman
   Carlo Alighiero: dottor Sam Weizak
   Sergio Rossi: Roger Stuart
   Elio Zamuto: Greg Stillson
   Francesca Palopoli: Vera Smith




Il professore di lettere Johnny Smith cade in un lungo periodo di coma in seguito ad un incidente stradale. Al suo risveglio non solo comprende che la sua vita sentimentale

irrimediabilmente distrutta (la sua fidanzata Sarah, l'ultima persona che vide prima dello scontro, si nel frattempo sposata), ma scopre di possedere un oscuro e inquietante potere, che

gli consente di predire il futuro di tutte le persone con cui entra in contatto fisico. Una semplice stretta di mano, ad esempio, genera improvvise visioni nella mente dell'uomo, che sa

anticipare con assoluta certezza eventi drammatici e anche tragici che stanno per colpire la persona che ha toccato........



Christopher Walken wakes from a coma due to a car accident, only to find he has lost five years of his life, and yet gained psychic powers. Foreseeing the future appears to be a 'gift' at

first, but ends up causing problems.............






General
Complete name                    : La Zona Morta - The Dead Zone (1983)\La Zona Morta - The Dead Zone (1983).avi
Format                           : AVI
Format/Info                      : Audio Video Interleave
File size                        : 1.46 GiB
Duration                         : 1h 39mn
Overall bit rate                 : 2 104 Kbps
Writing application              : VirtualDubMod 1.5.4.1 (build 2178/release)
Writing library                  : VirtualDubMod build 2178/release

Video
ID                               : 0
Format                           : MPEG-4 Visual
Format profile                   : Advanced Simple@L5
Format settings, BVOP            : Yes
Format settings, QPel            : No
Format settings, GMC             : No warppoints
Format settings, Matrix          : Custom
Codec ID                         : XVID
Codec ID/Hint                    : XviD
Duration                         : 1h 39mn
Bit rate                         : 1 519 Kbps
Width                            : 720 pixels
Height                           : 416 pixels
Display aspect ratio             : 16:9
Frame rate                       : 25.000 fps
Color space                      : YUV
Chroma subsampling               : 4:2:0
Bit depth                        : 8 bits
Scan type                        : Progressive
Bits/(Pixel*Frame)               : 0.203
Stream size                      : 1.05 GiB (72%)
Writing library                  : XviD 1.2.1 (UTC 2008-12-04)

Audio #1
ID                               : 1
Format                           : AC-3
Format/Info                      : Audio Coding 3
Format profile                   : Dolby Digital
Mode extension                   : CM (complete main)
Codec ID                         : 2000
Duration                         : 1h 39mn
Bit rate mode                    : Constant
Bit rate                         : 192 Kbps
Channel(s)                       : 2 channels
Channel positions                : Front: L R
Sampling rate                    : 48.0 KHz
Bit depth                        : 16 bits
Stream size                      : 136 MiB (9%)
Alignment                        : Aligned on interleaves
Interleave, duration             : 96 ms (2.40 video frames)
Interleave, preload duration     : 96 ms
Language                         : Italian

Audio #2
ID                               : 2
Format                           : AC-3
Format/Info                      : Audio Coding 3
Mode extension                   : CM (complete main)
Codec ID                         : 2000
Duration                         : 1h 39mn
Bit rate mode                    : Constant
Bit rate                         : 384 Kbps
Channel(s)                       : 6 channels
Channel positions                : Front: L C R, Side: L R, LFE
Sampling rate                    : 48.0 KHz
Bit depth                        : 16 bits
Stream size                      : 273 MiB (18%)
Alignment                        : Aligned on interleaves
Interleave, duration             : 96 ms (2.40 video frames)
Interleave, preload duration     : 96 ms
Language                         : English






Info: Per scaricare devi usare un client come uTorrent, o Azureus
AnnounceURL
http://tracker.tntvillage.scambioetico.org:2710/announce
Hash 66521201b4ec90bf0991a40334bacfca9432f44c
Peers seeds: 125 , leech: 88
Size 1.46 GB
Completato 591x
Aggiunto 30.04.13 - 17:04:49
Uploader   robbyrs
Votazione (Voti: 0)


Condividi questo bittorrent:


html/blog:


bbcode/forum:


Tramite bookmarks:



Aggiungi Commento