* Dettagli Torrent   globale  | Commenti (0) 


- Escape From Alcatraz - Fuga Da Alcatraz (1979) Don Siegel [XviD - Italian English Ac3 - Sub Ita Eng] -


Download via torrent:
                 
Categoria bittorrent DVDrip
Descrizione
Escape From Alcatraz - Fuga Da Alcatraz (1979) Don Siegel [XviD - Italian English Ac3 - Sub Ita Eng] MIRCrew [TNT Village]



Fuga Da Alcatraz - Escape From Alcatraz (1979) Don Siegel [XviD - Italian English Ac3 - Sub Ita Eng] MIRCrew [TNT Village]










 





Titolo originale Escape from Alcatraz
Paese di produzione USA
Anno 1979
Durata 112 min
Rapporto 1,78:1
Genere azione, drammatico
Regia Don Siegel
Soggetto J. Campbell Bruce
Sceneggiatura Richard Tuggle
Produttore Donald Siegel
Casa di produzione Paramount Pictures
Distribuzione (Italia) CIC
Fotografia Bruce Surtees
Montaggio Ferris Webster
Musiche Jerry Fielding

   








   Clint Eastwood: Frank Morris
   Larry Hankin: Charley Puzo
   Fred Ward: John Anglin
   Jack Thibeau: Clarence Anglin
   Patrick McGoohan: Direttore Warden
   Paul Benjamin: English
   Frank Ronzio: Tornasole
   Roberts Blossom: Chester "Doc" Dalton
   Bruce M. Fischer: Wolf Grace
   Fred Stuthman: Johnson
   David Cryer: Wagner
   Madison Arnold: Zimmerman

Doppiatori italiani

   Antonio Colonnello: Frank Morris
   Giancarlo Padoan: Clarence Anglin
   Dario Penne: Direttore Warden
   Lino Troisi: English
   Gil Baroni: Tornasole
   Mario Bardella: Wolf Grace



Il rapinatore Frank Morris, persona con quoziente d'intelligenza superiore, dopo varie evasioni, viene condotto nella prigione di Alcatraz. Evadere dal penitenziario, circondato dal mare da

tutti i lati, sembra un'impresa impossibile: in ventisei anni nessuno vi č mai riuscito. Nella dura atmosfera e nella disperazione di un carcere di massima sicurezza, Morris, insieme a due

compagni, trova il coraggio di architettare un'evasione sfruttando l'indebolimento dei muri della prigione provocato dalla..................



The story begins as Frank Morris (Clint Eastwood) arrives at the maximum security prison Alcatraz, having been sent there after escaping from several other prisons. He is sent in to meet

the warden (Patrick McGoohan), who curtly informs him that no one has ever escaped from Alcatraz. Eventually he meets his old friends, brothers John and Clarence Anglin (Fred Ward and Jack

Thibeau), and he makes the acquaintance of the prisoner in the cell next to his, Charlie Butts (Larry Hankin). Morris befriends numerous other inmates, including English (Paul Benjamin), a

black inmate serving two life sentences for killing two white men in self-defense; the eccentric Litmus (who keeps a pet mouse and calls himself Al Capone), and the elderly artist and

chrysanthemum grower Doc (Roberts Blossom)...............













General
Complete name                    : F:\Fuga Da Alcatraz - Escape From Alcatraz (1979)\Fuga Da Alcatraz - Escape From Alcatraz (1979).avi
Format                           : AVI
Format/Info                      : Audio Video Interleave
File size                        : 1.66 GiB
Duration                         : 1h 47mn
Overall bit rate                 : 2 216 Kbps
Writing application              : VirtualDubMod 1.5.4.1 (build 2178/release)
Writing library                  : VirtualDubMod build 2178/release

Video
ID                               : 0
Format                           : MPEG-4 Visual
Format profile                   : Advanced Simple@L5
Format settings, BVOP            : No
Format settings, QPel            : No
Format settings, GMC             : No warppoints
Format settings, Matrix          : Custom
Codec ID                         : XVID
Codec ID/Hint                    : XviD
Duration                         : 1h 47mn
Bit rate                         : 1 823 Kbps
Width                            : 720 pixels
Height                           : 416 pixels
Display aspect ratio             : 16:9
Frame rate                       : 25.000 fps
Color space                      : YUV
Chroma subsampling               : 4:2:0
Bit depth                        : 8 bits
Scan type                        : Progressive
Bits/(Pixel*Frame)               : 0.243
Stream size                      : 1.37 GiB (82%)
Writing library                  : XviD 1.2.1 (UTC 2008-12-04)

Audio #1
ID                               : 1
Format                           : AC-3
Format/Info                      : Audio Coding 3
Mode extension                   : CM (complete main)
Codec ID                         : 2000
Duration                         : 1h 47mn
Bit rate mode                    : Constant
Bit rate                         : 192 Kbps
Channel(s)                       : 2 channels
Channel positions                : Front: L R
Sampling rate                    : 48.0 KHz
Bit depth                        : 16 bits
Stream size                      : 147 MiB (9%)
Alignment                        : Aligned on interleaves
Interleave, duration             : 96 ms (2.40 video frames)
Interleave, preload duration     : 96 ms
Language                         : Italian

Audio #2
ID                               : 2
Format                           : AC-3
Format/Info                      : Audio Coding 3
Mode extension                   : CM (complete main)
Codec ID                         : 2000
Duration                         : 1h 47mn
Bit rate mode                    : Constant
Bit rate                         : 192 Kbps
Channel(s)                       : 2 channels
Channel positions                : Front: L R
Sampling rate                    : 48.0 KHz
Bit depth                        : 16 bits
Stream size                      : 147 MiB (9%)
Alignment                        : Aligned on interleaves
Interleave, duration             : 96 ms (2.40 video frames)
Interleave, preload duration     : 96 ms
Language                         : English





Info: Per scaricare devi usare un client come uTorrent, o Azureus
AnnounceURL
http://tracker.tntvillage.scambioetico.org:2710/announce
Hash 1fc01db2b04b8c5d499726a952f3b8c4101ca41d
Peers seeds: 59 , leech: 77
Size 1.67 GB
Completato 436x
Aggiunto 15.06.13 - 14:06:23
Uploader   robbyrs
Votazione (Voti: 0)


Condividi questo bittorrent:


html/blog:


bbcode/forum:


Tramite bookmarks:



Aggiungi Commento