* Dettagli Torrent   globale  | Commenti (0) 


- Conan the Barbarian (2011) [Italian English Ac3 5.1- Sub Ita Eng] MIRCrew -


Download via torrent:
                 
Categoria bittorrent DVDrip
Descrizione
Conan the Barbarian (2011) [Italian English Ac3 5.1- Sub Ita Eng] MIRCrew




NO FOUND ONLY ORIGINAL RELEASE

Conan the Barbarian (2011)


 



Titolo originale Conan the Barbarian
Paese di produzione USA
Anno 2011
Durata 112 min
Genere epico, fantastico, azione
Regia Marcus Nispel
Soggetto Robert E. Howard
Sceneggiatura Thomas Dean Donnelly, Joshua Oppenheimer, Dirk Blackman, Howard McCain, Sean Hood
Produttore Avi Lerner, Danny Lerner, Boaz Davidson, Joe Gatta, Fredrik Malmberg, Les Weldon
Produttore esecutivo Danny Dimbort, George Furla, Trevor Short, Henry Winterstern
Casa di produzione Lionsgate, Millenium Films, Nu Image, Paradox Entertainment
Fotografia Thomas Kloss
Musiche Tyler Bates
Scenografia Chris August
Costumi Wendy Partridge






   Jason Momoa: Conan
   Rachel Nichols: Tamara
   Stephen Lang: Khalar Zym
   Rose McGowan: Marique
   Ron Perlman: Corin
   Bob Sapp: Ukafa
   Gisella Marengo: Maliva
   Laila Rouass Fialla
   Sa´d Taghmaoui Ela-Shan
   Nathan Jones (wrestler) Akhun
   Leo Howard: Conan (giovane)

Doppiatori originali

   Morgan Freeman: Narratore

Doppiatori italiani

   Fabio Boccanera: Conan
   Domitilla D'Amico: Tamara
   Luca Biagini: Khalar Zym
   Federica De Bortoli: Marique
   Alessandro Rossi: Corin
   Paolo Marchese: Ukafa
   Luigi La Monica: narratore





Conan nasce in battaglia, ovvero sua madre partorisce nel bel mezzo di una guerra. La donna poi muore, e Conan cresce sotto le cura del padre che lo fa diventare un guerriero.

Secondo una profezia, un uomo tenterÓ di ripristinare la maschera di un demone cercandone tutte le parti e incollandole col sangue di una donna diretta discendente di Acheron. Quest'uomo Ŕ Khalar Zym, che uccide il padre di Conan davanti agli occhi del ragazzo e pi¨ tardi, aiutato dalla figlia e strega guerriera Marique, tenterÓ di fare lo stesso con Conan ormai diventato uomo..........





A quest that begins as a personal vendetta for the fierce Cimmerian warrior soon turns into an epic battle against hulking rivals, horrific monsters, and impossible odds, as Conan realizes he is the only hope of saving the great nations of Hyboria from an encroaching reign of supernatural evil................





[spoiler]
General
Complete name                            : M:\FILM DA RELLARE\Conan The Barbarian (2011).ita.eng.sub.ita.MIRCrew\Conan The Barbarian 2011.ita.eng.sub.ita.MIRCrew.avi
Format                                   : AVI
Format/Info                              : Audio Video Interleave
File size                                : 1.99 GiB
Duration                                 : 1h 52mn
Overall bit rate                         : 2 531 Kbps
Writing application                      : VirtualDubMod 1.5.10.2 (build 2540/release)
Writing library                          : VirtualDubMod build 2540/release

Video
ID                                       : 0
Format                                   : MPEG-4 Visual
Format profile                           : Advanced Simple@L5
Format settings, BVOP                    : 2
Format settings, QPel                    : No
Format settings, GMC                     : No warppoints
Format settings, Matrix                  : Default (H.263)
Codec ID                                 : XVID
Codec ID/Hint                            : XviD
Duration                                 : 1h 52mn
Bit rate                                 : 1 621 Kbps
Width                                    : 720 pixels
Height                                   : 304 pixels
Display aspect ratio                     : 2.40:1
Original display aspect ratio            : 2.35:1
Frame rate                               : 23.976 fps
Color space                              : YUV
Chroma subsampling                       : 4:2:0
Bit depth                                : 8 bits
Scan type                                : Progressive
Compression mode                         : Lossy
Bits/(Pixel*Frame)                       : 0.309
Stream size                              : 1.27 GiB (64%)
Writing library                          : XviD 1.1.2 (UTC 2006-11-01)

Audio #1
ID                                       : 1
Format                                   : AC-3
Format/Info                              : Audio Coding 3
Mode extension                           : CM (complete main)
Codec ID                                 : 2000
Duration                                 : 1h 52mn
Bit rate mode                            : Constant
Bit rate                                 : 448 Kbps
Channel(s)                               : 6 channels
Channel positions                        : Front: L C R, Side: L R, LFE
Sampling rate                            : 48.0 KHz
Bit depth                                : 16 bits
Compression mode                         : Lossy
Stream size                              : 360 MiB (18%)
Alignment                                : Split accross interleaves
Interleave, duration                     : 42 ms (1.00 video frame)
Interleave, preload duration             : 500 ms

Audio #2
ID                                       : 2
Format                                   : AC-3
Format/Info                              : Audio Coding 3
Mode extension                           : CM (complete main)
Codec ID                                 : 2000
Duration                                 : 1h 52mn
Bit rate mode                            : Constant
Bit rate                                 : 448 Kbps
Channel(s)                               : 6 channels
Channel positions                        : Front: L C R, Side: L R, LFE
Sampling rate                            : 48.0 KHz
Bit depth                                : 16 bits
Compression mode                         : Lossy
Stream size                              : 360 MiB (18%)
Alignment                                : Split accross interleaves
Interleave, duration                     : 42 ms (1.00 video frame)
Interleave, preload duration             : 500 ms







[/spoiler]


Info: Per scaricare devi usare un client come uTorrent, o Azureus
AnnounceURL
http://tracker.coppersurfer.tk:6969/announce
Hash aef2b3ea82d3550603f8c792b0ad53207c5dae42
Peers seeds: 167 , leech: 120
Size 1.99 GB
Completato 1243x
Aggiunto 18.02.14 - 13:02:09
Uploader   robbyrs
Votazione (Voti: 0)


Condividi questo bittorrent:


html/blog:


bbcode/forum:


Tramite bookmarks:



Aggiungi Commento