* Dettagli Torrent   globale  | Commenti (0) 


- 007 Licence to Kill ITA ENG AC3 BDRip 1080p X265 ZMachine -



Download via torrent:
                 
Categoria bittorrent DVDrip
Descrizione










:: Scheda del Film ::

Titolo Originale: Licence to Kill
Nazionalitą: Gran Bretagna
Anno: 1989
Genere: Spionaggio
Regia: John Glen
Durata: 141 Min

Cast:
Timothy Dalton, Carey Lowell, Robert Davi, Talisa Soto, Anthony Zerbe, Frank McRae, David Hedison, Wayne Newton, Benicio Del Toro, Desmond Llewelyn, Pedro Armendariz Jr., Everett McGill, Caroline Bliss, Robert Brown

:: Trama ::

In un piccolo Stato dell'America Centrale, Franz Sanchez, signore assoluto di un vero impero della droga, il giorno delle nozze ha fatto violentare e uccidere la moglie di Felix, un agente amico e collega di James Bond. Rimasto gravemente ferito anche Felix, Bond decide di agire per proprio conto, poichč il suo capo gli ha tolto la licenza di uccidere, essendo questi fatti di competenza della CIA. Nell'impresa Bond sarą in parte aiutato dalla giovanissima Lupe Lamora, amante di Sanchez e ormai disamorata di questi e, in pari tempo, dalla graziosa ed impavida agente Pam Bouvier. Contornato dai suoi fidi, Sanchez ha vita dura: Bond penetra nella raffineria della droga e poi riesce ad introdursi nel principale luogo di distribuzione della droga, proprio mentre una delegazione cinese sta stipulando un accordo con il boss. Innumerevoli le peripezie, le imprese pazzesche su velivoli e su grosse autocisterne, lanciate attraverso le fiamme. Bond e Pam riescono nell'intento: Felix č vendicato, Sanchez ucciso e la sua organizzazione miliardaria distrutta.

:: Screenshots ::








:: Mediainfo ::

General
Unique ID                                : 253200109007125652316489940116957215031 (0xBE7C9133183F93B6A116E8B59C62B937)
Complete name                            : E:\16_vendettaprivata\007.Licence.to.Kill.ITA.ENG.AC3.BDRip.1080p.X265_ZMachine.mkv
Format                                   : Matroska
Format version                           : Version 4 / Version 2
File size                                : 3.79 GiB
Duration                                 : 2h 13mn
Overall bit rate                         : 4 068 Kbps
Movie name                               : 007: Vendetta Privata - ZMachine
Encoded date                             : UTC 2014-10-16 20:57:25
Writing application                      : mkvmerge v7.2.0 ('On Every Street') 32bit built on Sep 13 2014 15:42:11
Writing library                          : libebml v1.3.0 + libmatroska v1.4.1

Video
ID                                       : 1
Format                                   : HEVC
Format/Info                              : High Efficiency Video Coding
Codec ID                                 : V_MPEGH/ISO/HEVC
Duration                                 : 2h 13mn
Bit rate                                 : 3 091 Kbps
Width                                    : 1 920 pixels
Height                                   : 816 pixels
Display aspect ratio                     : 2.35:1
Frame rate mode                          : Constant
Frame rate                               : 23.976 fps
Bits/(Pixel*Frame)                       : 0.082
Stream size                              : 2.88 GiB (76%)
Title                                    : Video H.265 (Encoded by ZMachine)
Default                                  : Yes
Forced                                   : Yes

Audio #1
ID                                       : 2
Format                                   : AC-3
Format/Info                              : Audio Coding 3
Mode extension                           : CM (complete main)
Format settings, Endianness              : Big
Codec ID                                 : A_AC3
Duration                                 : 2h 13mn
Bit rate mode                            : Constant
Bit rate                                 : 448 Kbps
Channel(s)                               : 6 channels
Channel positions                        : Front: L C R, Side: L R, LFE
Sampling rate                            : 48.0 KHz
Bit depth                                : 16 bits
Compression mode                         : Lossy
Stream size                              : 427 MiB (11%)
Title                                    : Audio AC3
Language                                 : Italian
Default                                  : Yes
Forced                                   : No

Audio #2
ID                                       : 3
Format                                   : AC-3
Format/Info                              : Audio Coding 3
Mode extension                           : CM (complete main)
Format settings, Endianness              : Big
Codec ID                                 : A_AC3
Duration                                 : 2h 13mn
Bit rate mode                            : Constant
Bit rate                                 : 448 Kbps
Channel(s)                               : 6 channels
Channel positions                        : Front: L C R, Side: L R, LFE
Sampling rate                            : 48.0 KHz
Bit depth                                : 16 bits
Compression mode                         : Lossy
Stream size                              : 427 MiB (11%)
Title                                    : Audio AC3
Language                                 : English
Default                                  : No
Forced                                   : No

Text #1
ID                                       : 4
Format                                   : ASS
Codec ID                                 : S_TEXT/ASS
Codec ID/Info                            : Advanced Sub Station Alpha
Compression mode                         : Lossless
Title                                    : Sub
Language                                 : Italian
Default                                  : No
Forced                                   : No

Text #2
ID                                       : 5
Format                                   : ASS
Codec ID                                 : S_TEXT/ASS
Codec ID/Info                            : Advanced Sub Station Alpha
Compression mode                         : Lossless
Title                                    : Sub
Language                                 : English
Default                                  : No
Forced                                   : No

Menu
00:00:00.000                             : Opening Sequence
00:08:37.558                             : Main Title
00:11:26.727                             : Everyone has a price
00:15:45.069                             : Underwater "Spring"
00:18:28.315                             : "See you in hell"
00:27:32.400                             : Spy meets shark
00:31:28.344                             : Blood money
00:32:52.303                             : Licence Revoked
00:36:16.257                             : "Man" -ta ray
00:40:44.984                             : "Bolt your Door"
00:43:33.277                             : Spy Hunt/Drug Load
00:46:12.978                             : Waterski Escape
00:47:42.484                             : Flying Money
00:50:38.952                             : Bar Fight
00:54:59.921                             : "Out of Gas!"
00:57:39.539                             : Banco de Isthmas
01:02:05.972                             : Prof. High Stakes
01:11:29.743                             : Family Reunion
01:14:45.814                             : Evil meets Evil
01:20:23.819                             : Netting a rogue spy
01:25:41.344                             : Former British Agent
01:30:40.184                             : 007 always returns
01:32:34.465                             : Pressurised deposit
01:38:33.407                             : Romance/Jealousy
01:42:53.667                             : Drug Plant Tour
01:49:44.369                             : The Conveyor
01:54:54.387                             : Profits up in flames
01:56:46.499                             : Truck Jacking
02:01:21.649                             : Tanker Attack
02:05:32.733                             : Not Dead Yet
02:08:31.537                             : Splashing Finish
02:10:36.745                             : End Credits



Info: Per scaricare devi usare un client come uTorrent, o Azureus
AnnounceURL
http://tracker.tntvillage.scambioetico.org:2710/announce
Hash 27225b596fd8e12742b528f0f5f973d9273c3963
Peers seeds: 18 , leech: 39
Size 3.81 GB
Completato 269x
Aggiunto 28.10.14 - 16:10:10
Uploader   ZMachine
Votazione (Voti: 0)


Condividi questo bittorrent:


html/blog:


bbcode/forum:


Tramite bookmarks:



Aggiungi Commento