* Dettagli Torrent   globale  | Commenti (0) 


- The Fugees - Greatest Hits (2003)[Flac Cue][TNT] -



Download via torrent:
                 
Categoria bittorrent Musica
Descrizione
The Fugees

Greatest Hits
(2003)








.: Recensione :.

I Fugees stato un trio hip hop statunitense composto da Wyclef Jean, Pras Michel e Lauryn Hill. Il gruppo ha portato l'hip hop nel mainstream musicale delle classifiche, facendolo conoscere ad ogni fascia di ascoltatore; a loro va il merito di averlo incanalato in un'altra dimensione diversa dai temi della violenza, della filosofia gangsta e della misoginia.

Il nome Fugees un'abbreviazione di refugee (rifugiato). Il termine significa, oltre al rifugio che molta gente vede nella propria mente, anche un dispregiativo usato nei confronti degli haitiani che chiedevano asilo sociale e politico negli Stati Uniti. Non a caso Prakazrel Michel (Pras Michel) e suo cugino Wyclef "Clef" Jean sono entrambi di origine haitiana.
La genesi del gruppo avviene quando i due amici di liceo Lauryn Hill e Pras Michel iniziano a fare musica insieme, in New Jersey. Al duo si associa Wyclef, cugino di Pras, e dopo numerose registrazioni, nel 1993 il gruppo realizza Blunted on Reality, primo LP. Il progetto risente di influenze funk e dancehall, realizzando un notevole successo.

---------------------------------------------------------------------------------------

.: Greatest Hits  :.

E' una raccolta dei singoli pi famosi del trio con 3 bonus track.




Title: Greatest Hits
Year: 2003  
Release Date: 3 April 2003                                  
Genere: Hip Hop, Funk/Soul
Label: Columbia - Col 511259 2
Number of Discs: 1
Number of Tracks: 13
Audio Codec: Flac
Quality: (see Technical Data and log file for more info)
Playtime: 55 min :41 sec







The Fugees Greatest Hits (2003) - Tracklist

1 "Fu-Gee-La" (Jean, Michel, Hill, McGrier, Brockert, Remi) - 4:06
2 "No Woman, No Cry" (Ford) - 4:20
3 "Ready or Not" (Feat "Boadicea" by Enya) (Jean, Michel, Hill, Hart, Bell) - 3:48
4 "Killing Me Softly" (Gimbel, Fox) - 4:52
5 "The Score" (Jean, Michel, Hill, Diamond D) - 4:09
6 "How Many Mics" (Jean, Michel, Hill) - 4:15
7 "Cowboys" (Jean, Michel, Hill, Forte, Zee, Digga) - 4:46
8 "Nappy Heads" (Remix Radio Edit) (Jean, Michel, Hill) - 4:38
9 "Vocab" (Refugees Hip Hop Remix) (Jean, Michel, Hill) - 4:02
10 "The Sweetest Thing" (Mahogany Mix) (Hill, Jean, DeVorzon) - 4:24
11 "A Change Is Gonna Come" (Live From BBC Radio 1) (Cooke) - 2:47 *
12 "Killing Me Softly" (Live From MCM) (Gimbel, Fox) - 4:35 *
13 "Freestyle" (Live From BBC Radio 1) (Jean, Michel, Hill) - 4:59 *

* Bonus tracks





X Lossless Decoder version 20140504 (147.0)

XLD extraction logfile from 2014-11-03 19:13:24 +0100

The Fugees / Greatest Hits

Used drive : HL-DT-ST DVDRW  GS31N (revision TA17)
Media type : Pressed CD

Ripper mode             : XLD Secure Ripper
Disable audio cache     : OK for the drive with a cache less than 1375KiB
Make use of C2 pointers : NO
Read offset correction  : 667
Max retry count         : 20
Gap status              : Analyzed, Appended

TOC of the extracted CD
    Track |   Start  |  Length  | Start sector | End sector
   ---------------------------------------------------------
       1  | 00:00:00 | 04:06:30 |         0    |    18479  
       2  | 04:06:30 | 04:20:58 |     18480    |    38037  
       3  | 08:27:13 | 03:48:74 |     38038    |    55211  
       4  | 12:16:12 | 04:52:20 |     55212    |    77131  
       5  | 17:08:32 | 04:09:63 |     77132    |    95869  
       6  | 21:18:20 | 04:15:00 |     95870    |   114994  
       7  | 25:33:20 | 04:46:72 |    114995    |   136516  
       8  | 30:20:17 | 04:38:72 |    136517    |   157438  
       9  | 34:59:14 | 04:02:14 |    157439    |   175602  
      10  | 39:01:28 | 04:24:51 |    175603    |   195453  
      11  | 43:26:04 | 02:47:02 |    195454    |   207980  
      12  | 46:13:06 | 04:35:43 |    207981    |   228648  
      13  | 50:48:49 | 04:59:04 |    228649    |   251077  

List of alternate offset correction values
       #  | Absolute | Relative | Confidence
   ------------------------------------------
       1  |     32   |   -635   |      7    
       2  |    619   |    -48   |      3    
       3  |      3   |   -664   |      2    

AccurateRip Summary (DiscID: 001abd80-010b94b4-970d130d)
   Track 01 : OK (v1+v2, confidence 109/120)
   Track 02 : OK (v1+v2, confidence 108/117)
   Track 03 : OK (v1+v2, confidence 108/11
   Track 04 : OK (v1+v2, confidence 109/11
   Track 05 : OK (v1+v2, confidence 108/11
   Track 06 : OK (v1+v2, confidence 107/116)
   Track 07 : OK (v1+v2, confidence 107/117)
   Track 08 : OK (v1+v2, confidence 108/117)
   Track 09 : OK (v1+v2, confidence 107/117)
   Track 10 : OK (v1+v2, confidence 106/116)
   Track 11 : OK (v1+v2, confidence 107/117)
   Track 12 : OK (v1+v2, confidence 108/11
   Track 13 : OK (v1+v2, confidence 105/114)
       ->All tracks accurately ripped.

All Tracks
   Statistics
       Read error                           : 0
       Jitter error (maybe fixed)           : 0
       Retry sector count                   : 1
       Damaged sector count                 : 0

Track 01
   Filename : /Music/01 The Fugees - Fu-Gee-La.flac
   Pre-gap length : 00:02:00

   CRC32 hash (test run)    : E973DF9D
   CRC32 hash               : E973DF9D
   CRC32 hash (skip zero)   : 8BDA7DC5
   AccurateRip v1 signature : 17C29987
   AccurateRip v2 signature : C3CFC8A5
       ->Accurately ripped (v1+v2, confidence 63+46/120)
   Statistics
       Read error                           : 0
       Jitter error (maybe fixed)           : 0
       Retry sector count                   : 1
       Damaged sector count                 : 0

Track 02
   Filename : /Music/02 The Fugees - No Woman, No Cry.flac
   Pre-gap length : 00:02:00

   CRC32 hash (test run)    : 9AA94F1D
   CRC32 hash               : 9AA94F1D
   CRC32 hash (skip zero)   : 130D5883
   AccurateRip v1 signature : 941E0312
   AccurateRip v2 signature : A4F28F3F
       ->Accurately ripped (v1+v2, confidence 63+45/117)
   Statistics
       Read error                           : 0
       Jitter error (maybe fixed)           : 0
       Retry sector count                   : 0
       Damaged sector count                 : 0

Track 03
   Filename : /Music/03 The Fugees - Ready Or Not (feat. ''Boadecia'' by Enya).flac
   Pre-gap length : 00:02:00

   CRC32 hash (test run)    : 64E3D587
   CRC32 hash               : 64E3D587
   CRC32 hash (skip zero)   : 64B42E24
   AccurateRip v1 signature : 93980019
   AccurateRip v2 signature : 81437365
       ->Accurately ripped (v1+v2, confidence 62+46/11
   Statistics
       Read error                           : 0
       Jitter error (maybe fixed)           : 0
       Retry sector count                   : 0
       Damaged sector count                 : 0

Track 04
   Filename : /Music/04 The Fugees - Killing Me Softly With His Song.flac
   Pre-gap length : 00:01:74

   CRC32 hash (test run)    : 2F423A73
   CRC32 hash               : 2F423A73
   CRC32 hash (skip zero)   : 5176C526
   AccurateRip v1 signature : 461AE83E
   AccurateRip v2 signature : 92B58857
       ->Accurately ripped (v1+v2, confidence 63+46/11
   Statistics
       Read error                           : 0
       Jitter error (maybe fixed)           : 0
       Retry sector count                   : 0
       Damaged sector count                 : 0

Track 05
   Filename : /Music/05 The Fugees - The Score.flac
   Pre-gap length : 00:02:00

   CRC32 hash (test run)    : 91E1E72C
   CRC32 hash               : 91E1E72C
   CRC32 hash (skip zero)   : 3E9C1262
   AccurateRip v1 signature : CF4AA690
   AccurateRip v2 signature : A7C9C9B3
       ->Accurately ripped (v1+v2, confidence 62+46/11
   Statistics
       Read error                           : 0
       Jitter error (maybe fixed)           : 0
       Retry sector count                   : 0
       Damaged sector count                 : 0

Track 06
   Filename : /Music/06 The Fugees - How Many Mics.flac
   Pre-gap length : 00:02:00

   CRC32 hash (test run)    : 05A64AC3
   CRC32 hash               : 05A64AC3
   CRC32 hash (skip zero)   : A1C00477
   AccurateRip v1 signature : 9F2C13F1
   AccurateRip v2 signature : CB576448
       ->Accurately ripped (v1+v2, confidence 62+45/116)
   Statistics
       Read error                           : 0
       Jitter error (maybe fixed)           : 0
       Retry sector count                   : 0
       Damaged sector count                 : 0

Track 07
   Filename : /Music/07 The Fugees - Cowboys.flac
   Pre-gap length : 00:02:00

   CRC32 hash (test run)    : D51A2C57
   CRC32 hash               : D51A2C57
   CRC32 hash (skip zero)   : A302A0B6
   AccurateRip v1 signature : B25683D5
   AccurateRip v2 signature : 6C0CBD90
       ->Accurately ripped (v1+v2, confidence 62+45/117)
   Statistics
       Read error                           : 0
       Jitter error (maybe fixed)           : 0
       Retry sector count                   : 0
       Damaged sector count                 : 0

Track 08
   Filename : /Music/08 The Fugees - Nappy Heads (Remix Radio Edit).flac
   Pre-gap length : 00:02:00

   CRC32 hash (test run)    : 4943C77B
   CRC32 hash               : 4943C77B
   CRC32 hash (skip zero)   : 41DBF158
   AccurateRip v1 signature : 47DD979B
   AccurateRip v2 signature : 06179609
       ->Accurately ripped (v1+v2, confidence 63+45/117)
   Statistics
       Read error                           : 0
       Jitter error (maybe fixed)           : 0
       Retry sector count                   : 0
       Damaged sector count                 : 0

Track 09
   Filename : /Music/09 The Fugees - Vocab (Refugees Hip Hop Remix).flac
   Pre-gap length : 00:02:00

   CRC32 hash (test run)    : 20BFA3A6
   CRC32 hash               : 20BFA3A6
   CRC32 hash (skip zero)   : 036138E1
   AccurateRip v1 signature : 0157B875
   AccurateRip v2 signature : 48E32CD8
       ->Accurately ripped (v1+v2, confidence 62+45/117)
   Statistics
       Read error                           : 0
       Jitter error (maybe fixed)           : 0
       Retry sector count                   : 0
       Damaged sector count                 : 0

Track 10
   Filename : /Music/10 The Fugees - The Sweetest Thing (Mahogany Mix).flac
   Pre-gap length : 00:02:00

   CRC32 hash (test run)    : 613F2311
   CRC32 hash               : 613F2311
   CRC32 hash (skip zero)   : E76C866C
   AccurateRip v1 signature : B56A3C89
   AccurateRip v2 signature : 81282BB6
       ->Accurately ripped (v1+v2, confidence 62+44/116)
   Statistics
       Read error                           : 0
       Jitter error (maybe fixed)           : 0
       Retry sector count                   : 0
       Damaged sector count                 : 0

Track 11
   Filename : /Music/11 The Fugees - A Change Is Gonna Come (Live from BBC/Radio 1) [Bonus Track].flac
   Pre-gap length : 00:02:00

   CRC32 hash (test run)    : DDB2C95A
   CRC32 hash               : DDB2C95A
   CRC32 hash (skip zero)   : 64B905F7
   AccurateRip v1 signature : 4095295B
   AccurateRip v2 signature : 7F257D91
       ->Accurately ripped (v1+v2, confidence 62+45/117)
   Statistics
       Read error                           : 0
       Jitter error (maybe fixed)           : 0
       Retry sector count                   : 0
       Damaged sector count                 : 0

Track 12
   Filename : /Music/12 The Fugees - Killing Me Softly With His Song (Live from MCM) [Bonus Track].flac
   Pre-gap length : 00:02:00

   CRC32 hash (test run)    : ACF2D27A
   CRC32 hash               : ACF2D27A
   CRC32 hash (skip zero)   : 969050A3
   AccurateRip v1 signature : CCADE459
   AccurateRip v2 signature : 87778B47
       ->Accurately ripped (v1+v2, confidence 63+45/11
   Statistics
       Read error                           : 0
       Jitter error (maybe fixed)           : 0
       Retry sector count                   : 0
       Damaged sector count                 : 0

Track 13
   Filename : /Music/13 The Fugees - Freestyle (Live from BBC/Radio 1) [Bonus Track].flac
   Pre-gap length : 00:02:00

   CRC32 hash (test run)    : 3351AD7A
   CRC32 hash               : 3351AD7A
   CRC32 hash (skip zero)   : AFA923B7
   AccurateRip v1 signature : A9EBA736
   AccurateRip v2 signature : 2CEEDF6F
       ->Accurately ripped (v1+v2, confidence 62+43/114)
   Statistics
       Read error                           : 0
       Jitter error (maybe fixed)           : 0
       Retry sector count                   : 0
       Damaged sector count                 : 0

No errors occurred

End of status report



> Cover Included - Front - Back - CD<
Info: Per scaricare devi usare un client come uTorrent, o Azureus
AnnounceURL
http://tracker.tntvillage.scambioetico.org:2710/announce
Hash b946efe8b3eb60758305a442fa98f0dce2607724
Peers seeds: 56 , leech: 11
Size 342.30 MB
Completato 588x
Aggiunto 04.11.14 - 11:11:55
Uploader   kaimanov
Votazione (Voti: 0)


Condividi questo bittorrent:


html/blog:


bbcode/forum:


Tramite bookmarks:



Aggiungi Commento