* Dettagli Torrent   globale  | Commenti (0) 


- 007 Skyfall ITA ENG DTS AAC BDRip 1080p X264 ZMachine -



Download via torrent:
                 
Categoria bittorrent DVDrip
Descrizione








:: Scheda del Film ::

Titolo Originale: Skyfall
NazionalitÓ: USA | Gran Bretagna
Anno: 2012
Genere: Azione | Avventura
Regia: Sam Mendes
Durata: 143 Min

Cast:
Daniel Craig, Judi Dench, Javier Bardem, Ralph Fiennes, Naomie Harris, BÚrÚnice Marlohe, Albert Finney, Ben Whishaw, Rory Kinnear, Ola Rapace, Helen McCrory, Nicholas Woodeson, Bill Buckhurst, Elize du Toit, Ian Bonar, Gordon Milne, Peter Basham, Ben Loyd-Holmes, Tonia Sotiropoulou, Wolf Blitzer, Orion Lee, Dave Wong

:: Trama ::

La lealtÓ di James Bond verso M (Judi Dench) Ŕ messa a dura prova quando il passato della donna torna a perseguitarla. E mentre l'M6 Ŕ sotto attacco, l'agente 007 deve scovare e distruggere la minaccia a tutti i costi, anche personali.

:: Screenshots ::








:: Mediainfo ::

General
Unique ID                                : 182991016307689880327126041914900191683 (0x89AAC9AC5947FDE5B33F366ECC2B99C3)
Complete name                            : D:\23_skyfall\007.Skyfall.ITA.ENG.DTS.AAC.BDRip.1080p.X264_ZMachine.mkv
Format                                   : Matroska
Format version                           : Version 4 / Version 2
File size                                : 7.80 GiB
Duration                                 : 2h 23mn
Overall bit rate                         : 7 797 Kbps
Movie name                               : 007: Skyfall - ZMachine
Encoded date                             : UTC 2014-10-19 09:06:18
Writing application                      : mkvmerge v7.2.0 ('On Every Street') 32bit built on Sep 13 2014 15:42:11
Writing library                          : libebml v1.3.0 + libmatroska v1.4.1

Video
ID                                       : 1
Format                                   : AVC
Format/Info                              : Advanced Video Codec
Format profile                           : [email protected]
Format settings, CABAC                   : Yes
Format settings, ReFrames                : 4 frames
Codec ID                                 : V_MPEG4/ISO/AVC
Duration                                 : 2h 23mn
Nominal bit rate                         : 4 236 Kbps
Width                                    : 1 920 pixels
Height                                   : 800 pixels
Display aspect ratio                     : 2.40:1
Frame rate mode                          : Constant
Frame rate                               : 23.976 fps
Color space                              : YUV
Chroma subsampling                       : 4:2:0
Bit depth                                : 8 bits
Scan type                                : Progressive
Bits/(Pixel*Frame)                       : 0.115
Title                                    : Video H.264 (Encoded by ZMachine)
Writing library                          : x264 core 123 r2189 35cf912
Encoding settings                        : cabac=1 / ref=4 / deblock=1:0:0 / analyse=0x3:0x133 / me=umh / subme=9 / psy=1 / psy_rd=1.00:0.15 / mixed_ref=1 / me_range=24 / chroma_me=1 / trellis=1 / 8x8dct=1 / cqm=0 / deadzone=21,11 / fast_pskip=1 / chroma_qp_offset=-3 / threads=30 / sliced_threads=0 / nr=0 / decimate=1 / interlaced=0 / bluray_compat=0 / constrained_intra=0 / bframes=5 / b_pyramid=2 / b_adapt=2 / b_bias=0 / direct=1 / weightb=1 / open_gop=0 / weightp=2 / keyint=250 / keyint_min=23 / scenecut=40 / intra_refresh=0 / rc_lookahead=40 / rc=2pass / mbtree=1 / bitrate=4236 / ratetol=1.0 / qcomp=0.60 / qpmin=10 / qpmax=51 / qpstep=4 / cplxblur=20.0 / qblur=0.5 / ip_ratio=1.40 / aq=1:1.00
Default                                  : Yes
Forced                                   : No

Audio #1
ID                                       : 2
Format                                   : DTS
Format/Info                              : Digital Theater Systems
Mode                                     : 16
Format settings, Endianness              : Big
Codec ID                                 : A_DTS
Duration                                 : 2h 23mn
Bit rate mode                            : Constant
Bit rate                                 : 768 Kbps
Channel(s)                               : 6 channels
Channel positions                        : Front: L C R, Side: L R, LFE
Sampling rate                            : 48.0 KHz
Bit depth                                : 24 bits
Compression mode                         : Lossy
Stream size                              : 786 MiB (10%)
Title                                    : Audio DTS
Language                                 : Italian
Default                                  : Yes
Forced                                   : No

Audio #2
ID                                       : 3
Format                                   : DTS
Format/Info                              : Digital Theater Systems
Mode                                     : 16
Format settings, Endianness              : Big
Codec ID                                 : A_DTS
Duration                                 : 2h 23mn
Bit rate mode                            : Constant
Bit rate                                 : 1 509 Kbps
Channel(s)                               : 6 channels
Channel positions                        : Front: L C R, Side: L R, LFE
Sampling rate                            : 48.0 KHz
Bit depth                                : 24 bits
Compression mode                         : Lossy
Stream size                              : 1.51 GiB (19%)
Title                                    : Audio DTS
Language                                 : English
Default                                  : No
Forced                                   : No

Audio #3
ID                                       : 4
Format                                   : AAC
Format/Info                              : Advanced Audio Codec
Format profile                           : LC
Codec ID                                 : A_AAC
Duration                                 : 2h 23mn
Channel(s)                               : 6 channels
Channel positions                        : Front: L C R, Side: L R, LFE
Sampling rate                            : 48.0 KHz
Compression mode                         : Lossy
Delay relative to video                  : -397ms
Title                                    : Audio AAC
Language                                 : Italian
Default                                  : No
Forced                                   : No

Audio #4
ID                                       : 5
Format                                   : AAC
Format/Info                              : Advanced Audio Codec
Format profile                           : LC
Codec ID                                 : A_AAC
Duration                                 : 2h 23mn
Channel(s)                               : 6 channels
Channel positions                        : Front: L C R, Side: L R, LFE
Sampling rate                            : 48.0 KHz
Compression mode                         : Lossy
Delay relative to video                  : -397ms
Title                                    : Audio AAC
Language                                 : English
Default                                  : No
Forced                                   : No

Audio #5
ID                                       : 6
Format                                   : AC-3
Format/Info                              : Audio Coding 3
Mode extension                           : CM (complete main)
Format settings, Endianness              : Big
Codec ID                                 : A_AC3
Duration                                 : 2h 23mn
Bit rate mode                            : Constant
Bit rate                                 : 224 Kbps
Channel(s)                               : 2 channels
Channel positions                        : Front: L R
Sampling rate                            : 48.0 KHz
Bit depth                                : 16 bits
Compression mode                         : Lossy
Delay relative to video                  : -417ms
Stream size                              : 229 MiB (3%)
Title                                    : Commentary of Director
Language                                 : English
Default                                  : No
Forced                                   : No

Audio #6
ID                                       : 7
Format                                   : AC-3
Format/Info                              : Audio Coding 3
Mode extension                           : CM (complete main)
Format settings, Endianness              : Big
Codec ID                                 : A_AC3
Duration                                 : 2h 23mn
Bit rate mode                            : Constant
Bit rate                                 : 224 Kbps
Channel(s)                               : 2 channels
Channel positions                        : Front: L R
Sampling rate                            : 48.0 KHz
Bit depth                                : 16 bits
Compression mode                         : Lossy
Delay relative to video                  : -417ms
Stream size                              : 229 MiB (3%)
Title                                    : Commentary of Producers
Language                                 : English
Default                                  : No
Forced                                   : No

Text #1
ID                                       : 8
Format                                   : ASS
Codec ID                                 : S_TEXT/ASS
Codec ID/Info                            : Advanced Sub Station Alpha
Compression mode                         : Lossless
Title                                    : Sub
Language                                 : Italian
Default                                  : No
Forced                                   : No

Text #2
ID                                       : 9
Format                                   : ASS
Codec ID                                 : S_TEXT/ASS
Codec ID/Info                            : Advanced Sub Station Alpha
Compression mode                         : Lossless
Title                                    : Sub
Language                                 : English
Default                                  : No
Forced                                   : No

Text #3
ID                                       : 10
Format                                   : ASS
Codec ID                                 : S_TEXT/ASS
Codec ID/Info                            : Advanced Sub Station Alpha
Compression mode                         : Lossless
Title                                    : Sub Commentary of Director
Language                                 : Italian
Default                                  : No
Forced                                   : No

Text #4
ID                                       : 11
Format                                   : ASS
Codec ID                                 : S_TEXT/ASS
Codec ID/Info                            : Advanced Sub Station Alpha
Compression mode                         : Lossless
Title                                    : Sub Commentary of Director
Language                                 : English
Default                                  : No
Forced                                   : No

Text #5
ID                                       : 12
Format                                   : ASS
Codec ID                                 : S_TEXT/ASS
Codec ID/Info                            : Advanced Sub Station Alpha
Compression mode                         : Lossless
Title                                    : Sub Commentary of Producers
Language                                 : Italian
Default                                  : No
Forced                                   : No

Text #6
ID                                       : 13
Format                                   : ASS
Codec ID                                 : S_TEXT/ASS
Codec ID/Info                            : Advanced Sub Station Alpha
Compression mode                         : Lossless
Title                                    : Sub Commentary of Producers
Language                                 : English
Default                                  : No
Forced                                   : No

Menu
00:00:00.000                             : Chapter 1
00:04:28.476                             : Chapter 2
00:07:32.452                             : Chapter 3
00:12:47.391                             : Chapter 4
00:16:47.464                             : Chapter 5
00:21:37.337                             : Chapter 6
00:25:00.290                             : Chapter 7
00:29:25.221                             : Chapter 8
00:35:06.145                             : Chapter 9
00:38:27.763                             : Chapter 10
00:41:24.440                             : Chapter 11
00:46:22.905                             : Chapter 12
00:50:48.628                             : Chapter 13
00:54:53.290                             : Chapter 14
00:59:38.741                             : Chapter 15
01:05:14.243                             : Chapter 16
01:10:16.670                             : Chapter 17
01:17:09.750                             : Chapter 18
01:20:55.058                             : Chapter 19
01:26:10.373                             : Chapter 20
01:31:49.754                             : Chapter 21
01:37:04.527                             : Chapter 22
01:40:49.084                             : Chapter 23
01:43:45.969                             : Chapter 24
01:45:54.723                             : Chapter 25
01:52:10.598                             : Chapter 26
01:54:45.795                             : Chapter 27
01:58:13.044                             : Chapter 28
02:02:49.111                             : Chapter 29
02:09:38.645                             : Chapter 30
02:14:49.623                             : Chapter 31
02:17:46.424                             : Chapter 32

Info: Per scaricare devi usare un client come uTorrent, o Azureus
AnnounceURL
http://tracker.tntvillage.scambioetico.org:2710/announce
Hash 9950972038be15f769c12c2ef10dde0f70082a77
Peers seeds: 27 , leech: 64
Size 7.80 GB
Completato 265x
Aggiunto 08.11.14 - 12:11:22
Uploader   ZMachine
Votazione (Voti: 0)


Condividi questo bittorrent:


html/blog:


bbcode/forum:


Tramite bookmarks:



Aggiungi Commento