* Dettagli Torrent   globale  | Commenti (0) 


- Inception ITA ENG AC3 BDRip 1080p X265 ZMachine -



Download via torrent:
                 
Categoria bittorrent DVDrip
Descrizione






:: Scheda del Film ::

Titolo Originale: Inception
NazionalitÓ: USA, Gran Bretagna
Anno: 2010
Genere: Thriller, Fantascienza
Regia: Christopher Nolan
Durata: 148 Min

Cast:
Leonardo DiCaprio, Marion Cotillard, Ellen Page, Cillian Murphy, Michael Caine, Ken Watanabe, Joseph Gordon-Levitt, Tom Hardy, Tom Berenger, Lukas Haas, Tohoru Masamune, Claire Geare, Johnathan Geare, Carl Gilliard, Daniel Girondeaud, Mobin Khan, Yuji Okumoto, Nicole Pulliam, Dileep Rao, Talulah Riley

:: Trama ::

Dom Cobb (Leonardo Di Caprio) Ŕ un abilissimo ladro, il migliore al mondo quando di tratta della pericolosa arte dell'estrazione: ovvero il furto di preziosi segreti dal profondo del subconscio mentre si sogna, quando la mente Ŕ al massimo della sua vulnerabilitÓ. Le abilitÓ di Cobb ne hanno fatto un giocatore di primo piano nel pericoloso mondo dello spionaggio industriale, ma lo hanno reso un fuggitivo ricercato in tutto il mondo. Ma ora Cobb ha una chance di redenzione, ma solo se riuscirÓ a rendere possibile l'impossibile.

:: Screenshots ::








:: Mediainfo ::

General
Unique ID                                : 236786751837393093655326674704246655221 (0xB22378366170920C8252250941B648F5)
Complete name                            : E:\Inception\Inception.ITA.ENG.AC3.BDRip.1080p.X265_ZMachine.mkv
Format                                   : Matroska
Format version                           : Version 4 / Version 2
File size                                : 4.80 GiB
Duration                                 : 2h 28mn
Overall bit rate                         : 4 637 Kbps
Movie name                               : Inception - ZMachine
Encoded date                             : UTC 2014-11-10 19:42:47
Writing application                      : mkvmerge v7.2.0 ('On Every Street') 32bit built on Sep 13 2014 15:42:11
Writing library                          : libebml v1.3.0 + libmatroska v1.4.1

Video
ID                                       : 1
Format                                   : HEVC
Format/Info                              : High Efficiency Video Coding
Codec ID                                 : V_MPEGH/ISO/HEVC
Duration                                 : 2h 28mn
Bit rate                                 : 3 264 Kbps
Width                                    : 1 920 pixels
Height                                   : 800 pixels
Display aspect ratio                     : 2.40:1
Frame rate mode                          : Constant
Frame rate                               : 23.976 fps
Bits/(Pixel*Frame)                       : 0.089
Stream size                              : 3.38 GiB (70%)
Title                                    : Video H.265 (Encoded by ZMachine & MonoS94)
Default                                  : Yes
Forced                                   : Yes

Audio #1
ID                                       : 2
Format                                   : AC-3
Format/Info                              : Audio Coding 3
Mode extension                           : CM (complete main)
Format settings, Endianness              : Big
Codec ID                                 : A_AC3
Duration                                 : 2h 28mn
Bit rate mode                            : Constant
Bit rate                                 : 640 Kbps
Channel(s)                               : 6 channels
Channel positions                        : Front: L C R, Side: L R, LFE
Sampling rate                            : 48.0 KHz
Bit depth                                : 16 bits
Compression mode                         : Lossy
Stream size                              : 678 MiB (14%)
Title                                    : Audio AC3
Language                                 : Italian
Default                                  : Yes
Forced                                   : No

Audio #2
ID                                       : 3
Format                                   : AC-3
Format/Info                              : Audio Coding 3
Mode extension                           : CM (complete main)
Format settings, Endianness              : Big
Codec ID                                 : A_AC3
Duration                                 : 2h 28mn
Bit rate mode                            : Constant
Bit rate                                 : 640 Kbps
Channel(s)                               : 6 channels
Channel positions                        : Front: L C R, Side: L R, LFE
Sampling rate                            : 48.0 KHz
Bit depth                                : 16 bits
Compression mode                         : Lossy
Stream size                              : 678 MiB (14%)
Title                                    : Audio AC3
Language                                 : English
Default                                  : No
Forced                                   : No

Text #1
ID                                       : 4
Format                                   : ASS
Codec ID                                 : S_TEXT/ASS
Codec ID/Info                            : Advanced Sub Station Alpha
Compression mode                         : Lossless
Title                                    : Sub Forced
Language                                 : Italian
Default                                  : Yes
Forced                                   : Yes

Text #2
ID                                       : 5
Format                                   : ASS
Codec ID                                 : S_TEXT/ASS
Codec ID/Info                            : Advanced Sub Station Alpha
Compression mode                         : Lossless
Title                                    : Sub
Language                                 : Italian
Default                                  : No
Forced                                   : No

Text #3
ID                                       : 6
Format                                   : ASS
Codec ID                                 : S_TEXT/ASS
Codec ID/Info                            : Advanced Sub Station Alpha
Compression mode                         : Lossless
Title                                    : Sub
Language                                 : English
Default                                  : No
Forced                                   : No

Menu
00:00:00.000                             : Washed Ashore
00:11:41.742                             : Dream On A Train
00:21:37.337                             : A Paris Architect
00:31:20.336                             : Bilding Within A Dream
00:41:22.229                             : Seeking A Chemist
00:51:13.737                             : The Plan
01:01:21.552                             : Boarding The Plane
01:10:29.683                             : Kidnapping
01:22:15.597                             : The Safe's Combination
01:31:52.590                             : A Deeper Dream
01:40:38.532                             : The Ski Dream
01:51:22.175                             : Mal's Here
02:00:54.413                             : Our Children
02:10:09.051                             : The Kick
02:20:55.446                             : End Credits
Info: Per scaricare devi usare un client come uTorrent, o Azureus
AnnounceURL
http://tracker.tntvillage.scambioetico.org:2710/announce
Hash 82ad0cf2184476e3c51d235d55d5d0c87dcaa3b7
Peers seeds: 42 , leech: 53
Size 4.80 GB
Completato 870x
Aggiunto 13.11.14 - 15:11:53
Uploader   ZMachine
Votazione (Voti: 0)


Condividi questo bittorrent:


html/blog:


bbcode/forum:


Tramite bookmarks:



Aggiungi Commento