* Dettagli Torrent   globale  | Commenti (0) 


- Peppe Barra - Ci Vediamo Poco Fa (2011) [Flac][TNTVillage] -



Download via torrent:
                 
Categoria bittorrent Musica
Descrizione
[center]Artista
Peppe Barra

Album
Ci vediamo poco fa
2011

°°°

Una delle voci pių importanti
della cultura partenopea


°°°

Arrangiamenti
Luca Urciuolo

Musicisti
Luca Urciuolo
pianoforte
P. Del Vecchio
mandolino | chitarra
S. Pelosi
basso
I. Lacagnina
rullante | percussioni
P. Polcari
samples | electronic keyboard

Tracce
Lo Shampoo Giorgio Gaber
Na Sera 'E Maggio Pisano / Cioffi rielaborazione P. Barra
Bammenella R. Viviani
Canzone Dell'Inadeguatezza Brecht / Weill
Duetto Comico P. Barra / L. Urciuolo
Idillio 'E Merda Russo / Urciuolo rielaborazione P. Barra
Lu Vasillo S. Sarmiento
Zitella B. Lauzi
Confessore Anonimo rielaborazione P. Barra
Canzone A Dispetto G. Cottrau
Mimė Di Montemuro R. Viviani
Ci Vediamo Poco Fa G. Roderi / L. Urciuolo rielaborazione P. Barra

.: Dati Tecnici :.

Formato
Flac

[spoiler]
Exact Audio Copy V1.0 beta 3 from 29. August 2011

EAC extraction logfile from 15. November 2014, 0:18

Peppe Barra / Ci Vediamo Poco Fa

Used drive  : hp      CDDVDW SN-208BB   Adapter: 1  ID: 0

Read mode               : Secure
Utilize accurate stream : Yes
Defeat audio cache      : Yes
Make use of C2 pointers : No

Read offset correction                      : 6
Overread into Lead-In and Lead-Out          : No
Fill up missing offset samples with silence : Yes
Delete leading and trailing silent blocks   : No
Null samples used in CRC calculations       : Yes
Used interface                              : Native Win32 interface for Win NT & 2000
Gap handling                                : Appended to previous track

Used output format              : User Defined Encoder
Selected bitrate                : 768 kBit/s
Quality                         : High
Add ID3 tag                     : No
Command line compressor         : C:\Program Files (x86)\Exact Audio Copy\Flac\flac.exe
Additional command line options : -8 -V -T "Artist=%artist%" -T "Title=%title%" -T "Album=%albumtitle%" -T "DATE=%year%" -T "TRACKNUMBER=%tracknr%" -T "Genre=%genre%" -T "ALBUMARTIST=%albumartist%" -T "ALBUM ARTIST=%albumartist%" -T "COMMENT=EAC Secure Mode, Test & Copy, AccurateRip, FLAC -8" %source%


TOC of the extracted CD

    Track |   Start  |  Length  | Start sector | End sector
   ---------------------------------------------------------
       1  |  0:00.00 |  4:50.61 |         0    |    21810  
       2  |  4:50.61 |  2:27.04 |     21811    |    32839  
       3  |  7:17.65 |  3:32.37 |     32840    |    48776  
       4  | 10:50.27 |  1:54.40 |     48777    |    57366  
       5  | 12:44.67 |  4:06.73 |     57367    |    75889  
       6  | 16:51.65 |  2:20.22 |     75890    |    86411  
       7  | 19:12.12 |  1:43.43 |     86412    |    94179  
       8  | 20:55.55 |  2:24.03 |     94180    |   104982  
       9  | 23:19.58 |  3:49.40 |    104983    |   122197  
      10  | 27:09.23 |  2:37.08 |    122198    |   133980  
      11  | 29:46.31 |  1:54.02 |    133981    |   142532  
      12  | 31:40.33 |  1:57.21 |    142533    |   151328  


Track  1

    Filename C:\Users\User\Downloads\Peppe Barra - Ci vediamo poco fa (2011) [Flac]\01 - Lo Shampoo .wav

    Pre-gap length  0:00:02.00

    Peak level 100.0 %
    Extraction speed 1.9 X
    Track quality 99.9 %
    Test CRC FD8EF4EE
    Copy CRC FD8EF4EE
    Track not present in AccurateRip database
    Copy OK

Track  2

    Filename C:\Users\User\Downloads\Peppe Barra - Ci vediamo poco fa (2011) [Flac]\02 - Na Sera 'E Maggio .wav

    Pre-gap length  0:00:00.07

    Peak level 100.0 %
    Extraction speed 1.6 X
    Track quality 99.9 %
    Test CRC D0B36B86
    Copy CRC D0B36B86
    Track not present in AccurateRip database
    Copy OK

Track  3

    Filename C:\Users\User\Downloads\Peppe Barra - Ci vediamo poco fa (2011) [Flac]\03 - Bammenella .wav

    Peak level 100.0 %
    Extraction speed 2.0 X
    Track quality 99.9 %
    Test CRC E7DD9749
    Copy CRC E7DD9749
    Track not present in AccurateRip database
    Copy OK

Track  4

    Filename C:\Users\User\Downloads\Peppe Barra - Ci vediamo poco fa (2011) [Flac]\04 - Canzone Dell'Inadeguatezza .wav

    Pre-gap length  0:00:00.10

    Peak level 100.0 %
    Extraction speed 1.6 X
    Track quality 99.9 %
    Test CRC E2F926F5
    Copy CRC E2F926F5
    Track not present in AccurateRip database
    Copy OK

Track  5

    Filename C:\Users\User\Downloads\Peppe Barra - Ci vediamo poco fa (2011) [Flac]\05 - Duetto Comico .wav

    Peak level 100.0 %
    Extraction speed 2.3 X
    Track quality 99.9 %
    Test CRC 6C5A16BA
    Copy CRC 6C5A16BA
    Track not present in AccurateRip database
    Copy OK

Track  6

    Filename C:\Users\User\Downloads\Peppe Barra - Ci vediamo poco fa (2011) [Flac]\06 - Idillio 'E Merda .wav

    Pre-gap length  0:00:00.25

    Peak level 100.0 %
    Extraction speed 2.8 X
    Track quality 100.0 %
    Test CRC 16E598E2
    Copy CRC 16E598E2
    Track not present in AccurateRip database
    Copy OK

Track  7

    Filename C:\Users\User\Downloads\Peppe Barra - Ci vediamo poco fa (2011) [Flac]\07 - Lu Vasillo .wav

    Peak level 100.0 %
    Extraction speed 1.8 X
    Track quality 99.8 %
    Test CRC 1724FADF
    Copy CRC 1724FADF
    Track not present in AccurateRip database
    Copy OK

Track  8

    Filename C:\Users\User\Downloads\Peppe Barra - Ci vediamo poco fa (2011) [Flac]\08 - Zitella .wav

    Peak level 100.0 %
    Extraction speed 3.0 X
    Track quality 100.0 %
    Test CRC D77655F5
    Copy CRC D77655F5
    Track not present in AccurateRip database
    Copy OK

Track  9

    Filename C:\Users\User\Downloads\Peppe Barra - Ci vediamo poco fa (2011) [Flac]\09 - Confessore .wav

    Pre-gap length  0:00:00.10

    Peak level 100.0 %
    Extraction speed 3.3 X
    Track quality 100.0 %
    Test CRC 0E5E46AD
    Copy CRC 0E5E46AD
    Track not present in AccurateRip database
    Copy OK

Track 10

    Filename C:\Users\User\Downloads\Peppe Barra - Ci vediamo poco fa (2011) [Flac]\10 - Canzone A Dispetto .wav

    Peak level 100.0 %
    Extraction speed 3.2 X
    Track quality 100.0 %
    Test CRC B8B4B112
    Copy CRC B8B4B112
    Track not present in AccurateRip database
    Copy OK

Track 11

    Filename C:\Users\User\Downloads\Peppe Barra - Ci vediamo poco fa (2011) [Flac]\11 - Mimė Di Montemuro .wav

    Peak level 100.0 %
    Extraction speed 3.1 X
    Track quality 100.0 %
    Test CRC C8569CF3
    Copy CRC C8569CF3
    Track not present in AccurateRip database
    Copy OK

Track 12

    Filename C:\Users\User\Downloads\Peppe Barra - Ci vediamo poco fa (2011) [Flac]\12 - Ci Vediamo Poco Fa .wav

    Pre-gap length  0:00:02.00

    Peak level 100.0 %
    Extraction speed 2.2 X
    Track quality 99.9 %
    Test CRC 625C0321
    Copy CRC 625C0321
    Track not present in AccurateRip database
    Copy OK


None of the tracks are present in the AccurateRip database

No errors occurred

End of status report

==== Log checksum 8628908E4B54ACA94B56DEF18FE801386FE037ACD39A3663CB97F53D9149EB75 ====
[/spoiler]

.: Note :.

La release č completa di cover, m3u, log, nfo  e cue.

°°°

Tra le erbe
un fiore bianco sboccia.
Ignoto il suo nome.


Masaoka Shiki

°°°

[/center]
Info: Per scaricare devi usare un client come uTorrent, o Azureus
AnnounceURL
http://tracker.tntvillage.scambioetico.org:2710/announce
Hash 54f8badcb536bb8e2e8a0ad7621af41fba675689
Peers seeds: 31 , leech: 2
Size 150.36 MB
Completato 388x
Aggiunto 15.11.14 - 07:11:12
Uploader   Mo_Yan
Votazione (Voti: 0)


Condividi questo bittorrent:


html/blog:


bbcode/forum:


Tramite bookmarks:



Aggiungi Commento