* Dettagli Torrent   globale  | Commenti (0) 


- Requiem.For.A.Dream.HDMux.1080p.x264.ITA-AC3.ENG-DTS.Multisub.VeryStrangeFish -



Download via torrent:
                 
Categoria bittorrent DVDrip
Descrizione
Requiem For a Dream (2000)



Scheda del Film


Titolo originale ╗ Requiem For A Dream
NazionalitÓ ╗ USA
Anno ╗ 2000    
Durata ╗ 102 minuti                
Genere ╗ Drammatico
Regia ╗ Darren Aronofsky

Cast:
Ellen Burstyn, Jared Leto, Jennifer Connelly, Marlon Wayans, Tyrone C. Love, Christopher McDonald, Tappy Tibbons

Trama

Sara Ŕ una casalinga sola e depressa che sogna di partecipare ad uno show televisivo, il suo unico figlio, Harry, Ŕ un tossicodipendente che passa le sue giornate alla ricerca di droga insieme all'amico Tyrone. La ragazza di Harry, Maryon, Ŕ una borghese annoiata e problematica, anche lei tossicodipendente. Quattro vite ai margini, quattro storie destinate a risolversi tragicamente.


Screenshoots




Report File

General
Unique ID: 222056751699641725232662120182774183627 (0xA70E93227FDD36278702188ADB9F36CB)
Complete name: Requiem.For.A.Dream.HDMux.1080p.x264.ITA-AC3.ENG-DTS.Multisub.VeryStrangeFish.mkv
Format: Matroska
Format version: Version 4 / Version 2
File size: 8.26 GiB
Duration: 1h 41mn
Overall bit rate: 11.6 Mbps
Encoded date: UTC 2013-09-11 12:49:43
Writing application: mkvmerge v6.2.0 ('Promised Land') built on Apr 28 2013 18:50:30
Writing library: libebml v1.3.0 + libmatroska v1.4.0

Video
ID: 1
Format: AVC
Format/Info: Advanced Video Codec
Format profile: [email protected]
Format settings, CABAC: Yes
Format settings, ReFrames: 5 frames
Codec ID: V_MPEG4/ISO/AVC
Duration: 1h 41mn
Bit rate: 9 689 Kbps
Width: 1 920 pixels
Height: 1 080 pixels
Display aspect ratio: 16:9
Frame rate mode: Constant
Frame rate: 23.976 fps
Color space: YUV
Chroma subsampling: 4:2:0
Bit depth: 8 bits
Scan type: Progressive
Bits/(Pixel*Frame): 0.195
Stream size: 6.71 GiB (81%)
Writing library: x264 core 65 r999 cc51047
Encoding settings: cabac=1 / ref=5 / deblock=1:0:0 / analyse=0x3:0x133 / me=umh / subme=7 / psy_rd=1.0:0.0 / mixed_ref=1 / me_range=16 / chroma_me=1 / trellis=1 / 8x8dct=1 / cqm=2 / deadzone=21,11 / chroma_qp_offset=-2 / threads=3 / nr=0 / decimate=1 / mbaff=0 / bframes=3 / b_pyramid=1 / b_adapt=1 / b_bias=0 / direct=1 / wpredb=1 / keyint=250 / keyint_min=25 / scenecut=40(pre) / rc=2pass / bitrate=9689 / ratetol=1.0 / qcomp=0.60 / qpmin=10 / qpmax=51 / qpstep=4 / cplxblur=20.0 / qblur=0.5 / ip_ratio=1.40 / pb_ratio=1.30 / aq=1:1.00
Language: English
Default: Yes
Forced: No

Audio #1
ID: 2
Format: AC-3
Format/Info: Audio Coding 3
Mode extension: CM (complete main)
Format settings, Endianness: Big
Codec ID: A_AC3
Duration: 1h 41mn
Bit rate mode: Constant
Bit rate: 448 Kbps
Channel count: 6 channels
Channel positions: Front: L C R, Side: L R, LFE
Sampling rate: 48.0 KHz
Bit depth: 16 bits
Compression mode: Lossy
Stream size: 325 MiB (4%)
Title: Italian AC3
Language: Italian
Default: Yes
Forced: No

Audio #2
ID: 3
Format: DTS
Format/Info: Digital Theater Systems
Mode: 16
Format settings, Endianness: Big
Codec ID: A_DTS
Duration: 1h 41mn
Bit rate mode: Constant
Bit rate: 1 509 Kbps
Channel count: 6 channels
Channel positions: Front: L C R, Side: L R, LFE
Sampling rate: 48.0 KHz
Bit depth: 16 bits
Compression mode: Lossy
Stream size: 1.07 GiB (13%)
Title: English DTS 5.1
Language: English
Default: No
Forced: No

Text #1
ID: 4
Format: UTF-8
Codec ID: S_TEXT/UTF8
Codec ID/Info: UTF-8 Plain Text
Title: Italiano
Language: Italian
Default: No
Forced: No

Text #2
ID: 5
Format: UTF-8
Codec ID: S_TEXT/UTF8
Codec ID/Info: UTF-8 Plain Text
Title: English
Language: English
Default: No
Forced: No




Info: Per scaricare devi usare un client come uTorrent, o Azureus
AnnounceURL
http://tracker.tntvillage.scambioetico.org:2710/announce
Hash 740f04e90465a149a75b23d4163e737fa7d4e003
Peers seeds: 9 , leech: 22
Size 8.26 GB
Completato 741x
Aggiunto 01.12.14 - 09:12:32
Uploader   Orgazmo
Votazione (Voti: 0)


Condividi questo bittorrent:


html/blog:


bbcode/forum:


Tramite bookmarks:



Aggiungi Commento