* Dettagli Torrent   globale  | Commenti (0) 


- Rushmore (1998) - BDmux 720p x264 - Ita Ac3 Eng Dts - Multisub - Orgazmo -



Download via torrent:
                 
Categoria bittorrent DVDrip
Descrizione
Rushmore (1998 )



Scheda del Film

Titolo originale ╗ Rushmore
NazionalitÓ ╗ USA
Anno ╗ 1998
Durata ╗ 93'
Genere ╗ Commedia
Regia ╗ Wes Anderson

Cast:
Jason Schwartzman, Bill Murray, Olivia Williams, Seymour Cassel, Brian Cox, Mason Gamble, Connie Nielsen, Luke Wilson, Owen Wilson, Andrew Wilson, Stephen McCole.

Trama

"Edward aveva pi¨ intelligenza e carattere e immaginazione in una sola unghia di quanta Herman Blume possa avere in tutto il suo corpo."

Max Fischer Ŕ un quindicenne che ha trovato la sua unica ragione di vita: frequentare la Rushmore Academy. Nerd occhialuto ma non secchione, con molteplici attivitÓ extra-curricolari all'attivo (tra cui l'allestimento di maestosi spettacoli teatrali), Max fa amicizia con il laconico e svogliato "uomo d'affari" Herman Blume e insieme a lui si scopre innamorato della dolce maestrina vedova miss Cross.

Interamente giocato sulla sottrazione e sul minimalismo a partire dalla recitazione (il viso imperturbabile di Bill Murray che getta in piscina una pallina da golf ne Ŕ l'esempio lampante), il film, lontano dalle solite commedie di ambiente studentesco, Ŕ un mosaico originale e intimista di personaggi infantili e contraddittori, ripresi con il tocco asciutto, personale e unico di un autore bizzarro quanto le sue creazioni.

Screenshoots




[SIZE=12]Report File[/SIZE]

General
Unique ID: 325526230283219275303450104073563956468 (0xF4E6124B1C474489399BD26520F864F4)
Complete name: Rushmore (1998 ) - BDmux 720p x264 - Ita Ac3 Eng Dts - Multisub - Orgazmo.mkv
Format: Matroska
Format version: Version 4 / Version 2
File size: 4.66 GiB
Duration: 1h 33mn
Overall bit rate: 7 173 Kbps
Movie name: Rushmore (Wes Anderson, 1998 ) - Orgazmo
Encoded date: UTC 2014-06-04 13:15:17
Writing application: mkvmerge v6.2.0 ('Promised Land') built on Apr 28 2013 18:50:30
Writing library: libebml v1.3.0 + libmatroska v1.4.0

Video
ID: 1
Format: AVC
Format/Info: Advanced Video Codec
Format profile: [email protected]
Format settings, CABAC: Yes
Format settings, ReFrames: 5 frames
Codec ID: V_MPEG4/ISO/AVC
Duration: 1h 33mn
Bit rate: 5 215 Kbps
Width: 1 280 pixels
Height: 544 pixels
Display aspect ratio: 2.35:1
Frame rate mode: Constant
Frame rate: 23.976 fps
Color space: YUV
Chroma subsampling: 4:2:0
Bit depth: 8 bits
Scan type: Progressive
Bits/(Pixel*Frame): 0.312
Stream size: 3.30 GiB (71%)
Title: Rushmore (Wes Anderson, 1998 )
Writing library: x264 core 119 r2106 07efeb4
Encoding settings: cabac=1 / ref=5 / deblock=1:0:0 / analyse=0x3:0x113 / me=umh / subme=8 /
psy=1 / psy_rd=1.00:0.00 / mixed_ref=1 / me_range=16 / chroma_me=1 / trellis=1 / 8x8dct=1 /
cqm=0 / deadzone=21,11 / fast_pskip=1 / chroma_qp_offset=-2 / threads=12 / sliced_threads=0 /
nr=0 / decimate=1 / interlaced=0 / bluray_compat=0 / constrained_intra=0 / bframes=3 /
b_pyramid=2 / b_adapt=2 / b_bias=0 / direct=3 / weightb=1 / open_gop=0 / weightp=2 /
keyint=240 / keyint_min=24 / scenecut=40 / intra_refresh=0 / rc_lookahead=50 / rc=2pass /
mbtree=1 / bitrate=5215 / ratetol=1.0 / qcomp=0.60 / qpmin=0 / qpmax=69 / qpstep=4 /
cplxblur=20.0 / qblur=0.5 / ip_ratio=1.40 / aq=1:1.00
Language: English
Default: Yes
Forced: No

Audio #1
ID: 2
Format: AC-3
Format/Info: Audio Coding 3
Mode extension: CM (complete main)
Format settings, Endianness: Big
Codec ID: A_AC3
Duration: 1h 33mn
Bit rate mode: Constant
Bit rate: 448 Kbps
Channel count: 2 channels
Channel positions: Front: L R
Sampling rate: 48.0 KHz
Bit depth: 16 bits
Compression mode: Lossy
Stream size: 298 MiB (6%)
Title: Italiano AC3 2.0 Stereo Surround
Language: Italian
Default: Yes
Forced: No

Audio #2
ID: 3
Format: DTS
Format/Info: Digital Theater Systems
Mode: 16
Format settings, Endianness: Big
Codec ID: A_DTS
Duration: 1h 33mn
Bit rate mode: Constant
Bit rate: 1 509 Kbps
Channel count: 6 channels
Channel positions: Front: L C R, Side: L R, LFE
Sampling rate: 48.0 KHz
Bit depth: 24 bits
Compression mode: Lossy
Stream size: 1 004 MiB (21%)
Title: English DTS 5.1
Language: English
Default: No
Forced: No

Text #1
ID: 4
Format: UTF-8
Codec ID: S_TEXT/UTF8
Codec ID/Info: UTF-8 Plain Text
Title: Italiano
Language: Italian
Default: No
Forced: No

Text #2
ID: 5
Format: UTF-8
Codec ID: S_TEXT/UTF8
Codec ID/Info: UTF-8 Plain Text
Title: English
Language: English
Default: No
Forced: No

Text #3
ID: 6
Format: UTF-8
Codec ID: S_TEXT/UTF8
Codec ID/Info: UTF-8 Plain Text
Title: Franšais
Language: French
Default: No
Forced: No

Text #4
ID: 7
Format: UTF-8
Codec ID: S_TEXT/UTF8
Codec ID/Info: UTF-8 Plain Text
Title: Deutsch
Language: German
Default: No
Forced: No

Text #5
ID: 8
Format: UTF-8
Codec ID: S_TEXT/UTF8
Codec ID/Info: UTF-8 Plain Text
Title: Espa˝ol
Language: Spanish
Default: No
Forced: No

Text #6
ID: 9
Format: UTF-8
Codec ID: S_TEXT/UTF8
Codec ID/Info: UTF-8 Plain Text
Title: Portuguŕs
Language: Portuguese
Default: No
Forced: No

Text #7
ID: 10
Format: UTF-8
Codec ID: S_TEXT/UTF8
Codec ID/Info: UTF-8 Plain Text
Title: Nederlands
Language: Dutch
Default: No
Forced: No

Text #8
ID: 11
Format: UTF-8
Codec ID: S_TEXT/UTF8
Codec ID/Info: UTF-8 Plain Text
Title: Svenska
Language: Swedish
Default: No
Forced: No

Text #9
ID: 12
Format: UTF-8
Codec ID: S_TEXT/UTF8
Codec ID/Info: UTF-8 Plain Text
Title: Suomi
Language: Finnish
Default: No
Forced: No

Text #10
ID: 13
Format: UTF-8
Codec ID: S_TEXT/UTF8
Codec ID/Info: UTF-8 Plain Text
Title: Českř
Language: Czech
Default: No
Forced: No

Menu
24 Chapters




Info: Per scaricare devi usare un client come uTorrent, o Azureus
AnnounceURL
http://tracker.tntvillage.scambioetico.org:2710/announce
Hash 3d9b3b1e7701c911199e239bc41bfd16afdc4c01
Peers seeds: 2 , leech: 31
Size 4.66 GB
Completato 349x
Aggiunto 01.12.14 - 13:12:52
Uploader   Orgazmo
Votazione (Voti: 0)


Condividi questo bittorrent:


html/blog:


bbcode/forum:


Tramite bookmarks:



Aggiungi Commento