* Dettagli Torrent   globale  | Commenti (0) 


- Maps To The Stars (2014) [XviD - Italian English Ac3 5.1 - Sub ita Eng] MIRCrew -



Download via torrent:
                 
Categoria bittorrent DVDrip
Descrizione
Maps To The Stars (2014) [XviD - Italian English Ac3 5.1 - Sub ita Eng] MIRCrew



[center]

NO FOUND ONLY ORIGINAL RELEASE


Maps To The Stars (2014)





 



Titolo originale Maps to the Stars
Lingua originale inglese
Paese di produzione Canada, Stati Uniti d'America
Anno 2014
Durata 111 min
Genere drammatico
Regia David Cronenberg
Sceneggiatura Bruce Wagner
Produttore Sad Ben Sad, Martin Katz, Michel Merkt
Produttore esecutivo Benedict Carver, Renee Tab, Patrice Theroux
Casa di produzione Prospero Pictures, Sentient Entertainment, SBS Productions, Integral Film
Distribuzione (Italia) Adler Entertainment
Fotografia Peter Suschitzky
Montaggio Ronald Sanders
Musiche Howard Shore
Scenografia Carol Spier
Trucco Verity Fiction




   Julianne Moore: Havana Segrand
   Mia Wasikowska: Agatha Weiss
   John Cusack: Dottor Stafford Weiss
   Sarah Gadon: Clarice Taggart
   Robert Pattinson: Jerome Fontana
   Olivia Williams: Christina Weiss
   Evan Bird: Benjie Weiss
   Dawn Greenhalgh: Genie
   Carrie Fisher: S stessa

Doppiatori italiani

   Franca D'Amato: Havana Segrand
   Joy Saltarelli: Agatha Weiss
   Oreste Baldini: Dottor Stafford Weiss
   Valentina Favazza: Clarice Taggart
   Stefano Crescentini: Jerome Fontana
   Chiara Colizzi: Christina Weiss
   Andrea Di Maggio: Benjie Weiss
   Aurora Cancian: Genie




La famiglia Weiss si sta facendo strada nell'assolata California del sud, tra soldi, sogni, fama, invidie, desiderio ed implacabili fantasmi. Stafford Weiss un famoso terapista televisivo con una lunga lista di clienti molto famosi, sua moglie Cristina Weiss si occupa della carriera del figlio tredicenne, star del cinema. La coppia ha un'altra figlia, di nome Agatha sfregiata da delle ustioni. A.....



The Weiss family is the archetypical Hollywood dynasty: father Stafford is an analyst and coach, who has made a fortune with his self-help manuals; mother Cristina mostly looks after the career of their son Benjie, 13, a child star. One of Stafford's clients, Havana, is an actress who dreams of shooting a remake of the movie that made her mother.....












[spoiler]
Generale

General
Complete name                            : Maps To The Stars (2014).ita.eng.sub.ita.eng.MIRCrew\Maps To The Stars (2014).ita.eng.sub.ita.eng.MIRCrew.avi
Format                                   : AVI
Format/Info                              : Audio Video Interleave
File size                                : 1.76 GiB
Duration                                 : 1h 51mn
Overall bit rate                         : 2 248 Kbps
Writing application                      : VirtualDubMod 1.5.10.2 (build 2540/release)
Writing library                          : VirtualDubMod build 2540/release

Video
ID                                       : 0
Format                                   : MPEG-4 Visual
Format profile                           : Simple@L3
Format settings, BVOP                    : No
Format settings, QPel                    : No
Format settings, GMC                     : No warppoints
Format settings, Matrix                  : Default (H.263)
Codec ID                                 : XVID
Codec ID/Hint                            : XviD
Duration                                 : 1h 51mn
Bit rate                                 : 1 337 Kbps
Width                                    : 720 pixels
Height                                   : 386 pixels
Display aspect ratio                     : 1.853
Frame rate                               : 24.000 fps
Color space                              : YUV
Chroma subsampling                       : 4:2:0
Bit depth                                : 8 bits
Scan type                                : Progressive
Compression mode                         : Lossy
Bits/(Pixel*Frame)                       : 0.201
Stream size                              : 1.04 GiB (60%)
Writing library                          : XviD 64

Audio #1
ID                                       : 1
Format                                   : AC-3
Format/Info                              : Audio Coding 3
Mode extension                           : CM (complete main)
Codec ID                                 : 2000
Duration                                 : 1h 51mn
Bit rate mode                            : Constant
Bit rate                                 : 448 Kbps
Channel(s)                               : 6 channels
Channel positions                        : Front: L C R, Side: L R, LFE
Sampling rate                            : 48.0 KHz
Bit depth                                : 16 bits
Compression mode                         : Lossy
Stream size                              : 358 MiB (20%)
Alignment                                : Split accross interleaves
Interleave, duration                     : 42 ms (1.00 video frame)
Interleave, preload duration             : 500 ms

Audio #2
ID                                       : 2
Format                                   : AC-3
Format/Info                              : Audio Coding 3
Mode extension                           : CM (complete main)
Codec ID                                 : 2000
Duration                                 : 1h 51mn
Bit rate mode                            : Constant
Bit rate                                 : 448 Kbps
Channel(s)                               : 6 channels
Channel positions                        : Front: L C R, Side: L R, LFE
Sampling rate                            : 48.0 KHz
Bit depth                                : 16 bits
Compression mode                         : Lossy
Stream size                              : 358 MiB (20%)
Alignment                                : Split accross interleaves
Interleave, duration                     : 42 ms (1.00 video frame)
Interleave, preload duration             : 500 ms



[/spoiler]

[/center]
Info: Per scaricare devi usare un client come uTorrent, o Azureus
AnnounceURL
udp://open.demonii.com:1337/announce
Hash 32d33cffe3c1b01d72841a4a9798dea23ecbbc3c
Peers seeds: 252 , leech: 332
Size 1.76 GB
Completato 1353x
Aggiunto 12.12.14 - 14:12:36
Uploader   robbyrs
Votazione (Voti: 1)


Condividi questo bittorrent:


html/blog:


bbcode/forum:


Tramite bookmarks:



Aggiungi Commento