* Dettagli Torrent   globale  | Commenti (0) 


- Bruno Mars - Unorthodox Jukebox (2012)[Flac Cue][TNT] -



Download via torrent:
                 
Categoria bittorrent Musica
Descrizione
Bruno Mars

Unorthodox Jukebox
(2012)






.: Recensione :.

Bruno Mars, nome d'arte di Peter Gene Hernandez (Honolulu, 8 ottobre 1985), è un cantante e produttore discografico statunitense.

Subito dopo il diploma si trasferisce a Los Angeles. La sua ispirazione musicale è Michael Jackson e molti critici indicano Mars come suo degno erede, riscontrando numerose somiglianze nel timbro vocale e nella versatilità di generi musicali.
Nel 2009 firma un contratto con la "Atlantic Records" dopo un periodo di insuccesso sotto un'altra etichetta discografica.

Ha scritto hit di successo per artisti come Flo Rida o Travie McCoy. Raggiunge la notorietà nel 2010 prestando la voce a Nothin' on You hit del rapper B.o.B., e Billionaire con Travie McCoy. La sua musica è caratterizzata da varie influenze, reggae, pop, soul o blues.

---------------------------------------------------------------------------------------

.: Unorthodox Jukebox   :.

Unorthodox Jukebox è il secondo album studio del cantautore statunitense Bruno Mars, pubblicato l'11 dicembre 2012 dalla casa discografica Atlantic Records. Il primo singolo estratto dall'album, Locked Out of Heaven, è stato pubblicato il 1º ottobre 2012 e ha ricevuto critiche positive dai critici ed è arrivato alla posizione numero 1 della Billboard Hot 100 per 4 settimane. Il 4 dicembre 2012 è stato reso disponibile sul sito ufficiale del cantautore l'ascolto di tutti i brani dell album.



Title: Unorthodox Jukebox
Year: 2012  
Release Date: 11 December 2012                                  
Genere: Funk / Soul, Contemporary R&B
Label: Atlantic ‎– 7567-87628-5
Number of Discs: 1
Number of Tracks: 10
Audio Codec: Flac
Quality: (see Technical Data and log file for more info)
Playtime: 34 min :57 sec





Bruno Mars - Unorthodox Jukebox (2012) - Tracklist

1 Young Girls 3:49
2 Locked Out Of Heaven 3:54
3 Gorilla 4:04
4 Treasure 2:59
5 Moonshine 3:49
6 When I Was Your Man 3:34
7 Natalie 3:45
8 Show Me 3:28
9 Money Make Her Smile 3:24
10 If I Knew 2:13





[spoiler]

X Lossless Decoder version 20121027 (142.1)

XLD extraction logfile from 2012-12-07 14:12:23 +1300

Bruno Mars / Unorthodox Jukebox

Used drive : HL-DT-ST DVDRW  GX40N (revision RQ00)

Ripper mode             : XLD Secure Ripper
Disable audio cache     : OK for the drive with a cache less than 1375KiB
Make use of C2 pointers : NO
Read offset correction  : 6
Max retry count         : 100
Gap status              : Analyzed, Appended (except HTOA)

TOC of the extracted CD
    Track |   Start  |  Length  | Start sector | End sector
   ---------------------------------------------------------
       1  | 00:00:00 | 03:48:54 |         0    |    17153  
       2  | 03:48:54 | 03:53:49 |     17154    |    34677  
       3  | 07:42:28 | 04:04:37 |     34678    |    53014  
       4  | 11:46:65 | 02:58:42 |     53015    |    66406  
       5  | 14:45:32 | 03:48:43 |     66407    |    83549  
       6  | 18:34:00 | 03:33:62 |     83550    |    99586  
       7  | 22:07:62 | 03:45:02 |     99587    |   116463  
       8  | 25:52:64 | 03:27:42 |    116464    |   132030  
       9  | 29:20:31 | 03:23:73 |    132031    |   147328  
      10  | 32:44:29 | 02:12:48 |    147329    |   157276  

AccurateRip Summary
   Disc not found in AccurateRip DB.

All Tracks
   Album gain               : -10.06 dB
   Peak                     : 1.000000
   Statistics
       Read error                           : 0
       Jitter error (maybe fixed)           : 0
       Retry sector count                   : 0
       Damaged sector count                 : 0

Track 01
   Filename :Bruno Mars - Unorthodox Jukebox (2012) [FLAC]/01 Young Girls.flac
   Pre-gap length : 00:02:00

   Track gain               : -10.59 dB
   Peak                     : 1.000000
   CRC32 hash (test run)    : 6C33669F
   CRC32 hash               : 6C33669F
   CRC32 hash (skip zero)   : 1F23135F
   AccurateRip v1 signature : D7208750
   AccurateRip v2 signature : 1C6A3F24
       ->Track not present in AccurateRip database.
   Statistics
       Read error                           : 0
       Jitter error (maybe fixed)           : 0
       Retry sector count                   : 0
       Damaged sector count                 : 0

Track 02
   Filename : Bruno Mars - Unorthodox Jukebox (2012) [FLAC]/02 Locked Out Of Heaven.flac

   Track gain               : -10.59 dB
   Peak                     : 1.000000
   CRC32 hash (test run)    : F43BB78F
   CRC32 hash               : F43BB78F
   CRC32 hash (skip zero)   : 882252B9
   AccurateRip v1 signature : 0386C609
   AccurateRip v2 signature : 2C6A1ADF
       ->Track not present in AccurateRip database.
   Statistics
       Read error                           : 0
       Jitter error (maybe fixed)           : 0
       Retry sector count                   : 0
       Damaged sector count                 : 0

Track 03
   Filename : Bruno Mars - Unorthodox Jukebox (2012) [FLAC]/03 Gorilla.flac

   Track gain               : -9.89 dB
   Peak                     : 1.000000
   CRC32 hash (test run)    : F6618C5B
   CRC32 hash               : F6618C5B
   CRC32 hash (skip zero)   : 25E32DB1
   AccurateRip v1 signature : 4C889434
   AccurateRip v2 signature : 8E8BB231
       ->Track not present in AccurateRip database.
   Statistics
       Read error                           : 0
       Jitter error (maybe fixed)           : 0
       Retry sector count                   : 0
       Damaged sector count                 : 0

Track 04
   Filename : Bruno Mars - Unorthodox Jukebox (2012) [FLAC]/04 Treasure.flac

   Track gain               : -9.85 dB
   Peak                     : 1.000000
   CRC32 hash (test run)    : 71E40C05
   CRC32 hash               : 71E40C05
   CRC32 hash (skip zero)   : 2A29BBEC
   AccurateRip v1 signature : 9A3ECB03
   AccurateRip v2 signature : 42CF8262
       ->Track not present in AccurateRip database.
   Statistics
       Read error                           : 0
       Jitter error (maybe fixed)           : 0
       Retry sector count                   : 0
       Damaged sector count                 : 0

Track 05
   Filename : Bruno Mars - Unorthodox Jukebox (2012) [FLAC]/05 Moonshine.flac

   Track gain               : -10.55 dB
   Peak                     : 1.000000
   CRC32 hash (test run)    : 098809D2
   CRC32 hash               : 098809D2
   CRC32 hash (skip zero)   : BDA5B2AB
   AccurateRip v1 signature : 4DB9F2F2
   AccurateRip v2 signature : C5802311
       ->Track not present in AccurateRip database.
   Statistics
       Read error                           : 0
       Jitter error (maybe fixed)           : 0
       Retry sector count                   : 0
       Damaged sector count                 : 0

Track 06
   Filename : Bruno Mars - Unorthodox Jukebox (2012) [FLAC]/06 When I Was Your Man.flac

   Track gain               : -8.63 dB
   Peak                     : 0.996521
   CRC32 hash (test run)    : DFEE1D31
   CRC32 hash               : DFEE1D31
   CRC32 hash (skip zero)   : BD1C5B07
   AccurateRip v1 signature : FE9963D9
   AccurateRip v2 signature : 43F1EBED
       ->Track not present in AccurateRip database.
   Statistics
       Read error                           : 0
       Jitter error (maybe fixed)           : 0
       Retry sector count                   : 0
       Damaged sector count                 : 0

Track 07
   Filename : Bruno Mars - Unorthodox Jukebox (2012) [FLAC]/07 Natalie.flac

   Track gain               : -8.49 dB
   Peak                     : 1.000000
   CRC32 hash (test run)    : 8C565F4B
   CRC32 hash               : 8C565F4B
   CRC32 hash (skip zero)   : 756FE95A
   AccurateRip v1 signature : B881DC1E
   AccurateRip v2 signature : E599D95C
       ->Track not present in AccurateRip database.
   Statistics
       Read error                           : 0
       Jitter error (maybe fixed)           : 0
       Retry sector count                   : 0
       Damaged sector count                 : 0

Track 08
   Filename : Bruno Mars - Unorthodox Jukebox (2012) [FLAC]/08 Show Me.flac

   Track gain               : -9.08 dB
   Peak                     : 1.000000
   CRC32 hash (test run)    : FE68F69D
   CRC32 hash               : FE68F69D
   CRC32 hash (skip zero)   : FB0CFCAE
   AccurateRip v1 signature : 074C9352
   AccurateRip v2 signature : 0F9309B7
       ->Track not present in AccurateRip database.
   Statistics
       Read error                           : 0
       Jitter error (maybe fixed)           : 0
       Retry sector count                   : 0
       Damaged sector count                 : 0

Track 09
   Filename : Bruno Mars - Unorthodox Jukebox (2012) [FLAC]/09 Money Make Her Smile.flac

   Track gain               : -9.44 dB
   Peak                     : 1.000000
   CRC32 hash (test run)    : B6C2F19A
   CRC32 hash               : B6C2F19A
   CRC32 hash (skip zero)   : 2DDF80FF
   AccurateRip v1 signature : CBF5D79B
   AccurateRip v2 signature : AD5C67A6
       ->Track not present in AccurateRip database.
   Statistics
       Read error                           : 0
       Jitter error (maybe fixed)           : 0
       Retry sector count                   : 0
       Damaged sector count                 : 0

Track 10
   Filename : Bruno Mars - Unorthodox Jukebox (2012) [FLAC]/10 If I Knew.flac

   Track gain               : -9.73 dB
   Peak                     : 1.000000
   CRC32 hash (test run)    : 7DC348A0
   CRC32 hash               : 7DC348A0
   CRC32 hash (skip zero)   : 787F3DE7
   AccurateRip v1 signature : C0C7CBFB
   AccurateRip v2 signature : B18BA12B
       ->Track not present in AccurateRip database.
   Statistics
       Read error                           : 0
       Jitter error (maybe fixed)           : 0
       Retry sector count                   : 0
       Damaged sector count                 : 0

No errors occurred

End of status report

[/spoiler]



> Cover Included - Front - Back - CD  <
Info: Per scaricare devi usare un client come uTorrent, o Azureus
AnnounceURL
http://tracker.tntvillage.scambioetico.org:2710/announce
Hash 97637496531934e33aa6f26db51568e98eacca15
Peers seeds: 28 , leech: 4
Size 230.25 MB
Completato 481x
Aggiunto 17.12.14 - 07:12:39
Uploader   kaimanov
Votazione (Voti: 0)


Condividi questo bittorrent:


html/blog:


bbcode/forum:


Tramite bookmarks:



Aggiungi Commento