* Dettagli Torrent   globale  | Commenti (0) 


- Django Unchained (2012) [OST][FLAC][TNTVillage] -



Download via torrent:
                 
Categoria bittorrent Musica
Descrizione
Artista
Artisti Vari

Album
Django Unchained
2012

Formato
Flac

La release è completa di cover, booklet, m3u, log, nfo  e cue.



°°°

[...] Una colonna sonora impeccabile. Una scaletta costruita sulla fusione di quell’ossessione tarantiniana per spaghetti western e polizieschi all’italiana, con la black music indispensabile per affrontare e raffigurare al meglio i temi trattati. Il risultato è un capolavoro di scelta, incastro e posizionamento. Tarantino colloca le sue tracce alla perfezione con l’abilità di uno scacchista. Si può assolutamente dire, anche questa volta: ha fatto scacco matto.

cinefilos.it

A NOTE ABOUT THE CONDITION OF THE OLDER RECORDINGS I AM USING ON THIS SOUNDTRACK - A LOT OF THESE CAME FROM MY PERSONAL VINYL COLLECTION. INSTEAD OF HAVING THE RECORD COMPANIES GIVE ME NEW DIGITALLY CLEANED UP VERSIONS OF THESE RECORDINGS FROM THE 60'S AND 70'S, I WANTED TO USE THE VINYL I'VE BEEN LISTENING TO FOR YEARS - COMPLETE WITH ALL THE POPS AND CRACKS.

I EVEN KEPT THE SOUND OF THE NEEDLE BEING PUT DOWN ON THE RECORD. BASICALLY BECAUSE I WANTED PEOPLE'S EXPERIENCE TO BE THE SAME AD MINE WHEN THEY HEAR THIS SOUNDTRACK FOR THE FIRST TIME.

-Q


°°°

Winged
Written by
Quentin Tarantino
Performed by
"Dickey Speck" / James Russo

Django
Written by
Luis Bacalov
Performed by
Luis Bacalov
Rocky Roberts

The Braying Mule
Written by
Ennio Morricone
Performed by
Ennio Morricone

"In That Case Django, After You"
Written by
Quentin Tarantino
Performed by
"Dr. King Schultz" / Christoph Waltz
"Django" / Jamie Foxx

"Lo Chiamavano King (His Name Is King)"
Written by
Luis Bacalov
Performed by
Luis Bacalov
Edda Dell'Orso

Freedom
Written by
Elayna Boynton
Kelvin Wooten
Anthony Hamilton
Performed by
Anthony Hamilton
Elayna Boynton

Five-Thousand-Dollar Nigga's And Gummy Mouth Bitches
Written by
Quentin Tarantino
Performed by
"Big Daddy" / Don Johnson
"Dr. King Schultz" / Christoph Waltz

La Corsa (2nd Version)
Written by
Luis Bacalov
Performed by
Luis Bacalov

Sneaky Schultz And The Demise Of Sharp
Written by
Quentin Tarantino
Performed by
"Daughtrey Sheriff Bill Sharp" / Don Straud

I Got A Name
Written by
Charles Fox
Norman Gimble
Performed by
Jim Croce

I Giorni Dell'Ira
Written by
Riziero Ortolani
Conducted by
Riz Ortolani

100 Black Coffins
Music by
Jamie Foxx
Lyrics by
Jamie Foxx
Rick Ross
Performed by
Rick Ross

Nicaragua
Written by
Jerry Goldsmith
Performed by
Jerry Goldsmith

Hildi's Hot Box
Written by
Quentin Tarantino
Performed by
"Stephen" / Samuel L. Jackson
"Calvin Candie" / Leonardo Di Caprio
"Dr. King Schultz" / Christoph Waltz

Sister Sara's Theme
Written by
Ennio Morricone
Performed by
Ennio Morricone

Ancora Qui
Written by
Ennio Morricone
Elisa Toffoli
Performed by
Elisa Toffoli

Unchained (The Payback/Untouchable)

The Payback
Written by
James Brown
Fred Wesley
John Starks
Performed by
James Brown

Untouchable
Written by
Kassem Dean
Yafeu Fula
Anthony Henderson
Tupac Shakur
Bruce Washington
Performed by
2Pac

Who Did That To You
Written by
John Stephens
Paul Epworth
Performed by
John Legend

Too Old To Die Young
Written by
Dege Legg
Performed by
Brother Dege (AKA Dege Legg)

Stephen The Poker Player
Written by
Quentin Tarantino
Performed by
"Stephen" / Samuel L. Jackson
"Django" / Jamie Foxx

Un Monumento
Written by
Ennio Morricone
Performed by
Ennio Morricone

Six Shots Two Guns
Written by
Quentin Tarantino
Performed by
"Stephen" / Samuel L. Jackson
"Django" / Jamie Foxx

Trinity (Titoli)
Written by
F. Micalizzi
L. Stott
Performed by
Annibale e i Cantori Moderni

.: Dati Tecnici :.


Exact Audio Copy V1.0 beta 3 from 29. August 2011

EAC extraction logfile from 16. December 2014, 20:50

Various / Django Unchained

Used drive  : hp      CDDVDW SN-208BB   Adapter: 1  ID: 0

Read mode               : Secure
Utilize accurate stream : Yes
Defeat audio cache      : Yes
Make use of C2 pointers : No

Read offset correction                      : 6
Overread into Lead-In and Lead-Out          : No
Fill up missing offset samples with silence : Yes
Delete leading and trailing silent blocks   : No
Null samples used in CRC calculations       : Yes
Used interface                              : Native Win32 interface for Win NT & 2000
Gap handling                                : Appended to previous track

Used output format              : User Defined Encoder
Selected bitrate                : 768 kBit/s
Quality                         : High
Add ID3 tag                     : No
Command line compressor         : C:\Program Files (x86)\Exact Audio Copy\Flac\flac.exe
Additional command line options : -8 -V -T "Artist=%artist%" -T "Title=%title%" -T "Album=%albumtitle%" -T "DATE=%year%" -T "TRACKNUMBER=%tracknr%" -T "Genre=%genre%" -T "ALBUMARTIST=%albumartist%" -T "ALBUM ARTIST=%albumartist%" -T "COMMENT=EAC Secure Mode, Test & Copy, AccurateRip, FLAC -8" %source%


TOC of the extracted CD

    Track |   Start  |  Length  | Start sector | End sector
   ---------------------------------------------------------
       1  |  0:00.00 |  0:08.43 |         0    |      642  
       2  |  0:08.43 |  2:54.02 |       643    |    13694  
       3  |  3:02.45 |  2:33.14 |     13695    |    25183  
       4  |  5:35.59 |  0:38.57 |     25184    |    28090  
       5  |  6:14.41 |  1:58.42 |     28091    |    36982  
       6  |  8:13.08 |  3:56.49 |     36983    |    54731  
       7  | 12:09.57 |  0:56.29 |     54732    |    58960  
       8  | 13:06.11 |  2:18.63 |     58961    |    69373  
       9  | 15:24.74 |  0:34.20 |     69374    |    71943  
      10  | 15:59.19 |  3:15.04 |     71944    |    86572  
      11  | 19:14.23 |  3:05.60 |     86573    |   100507  
      12  | 22:20.08 |  3:43.67 |    100508    |   117299  
      13  | 26:04.00 |  3:29.13 |    117300    |   132987  
      14  | 29:33.13 |  1:16.11 |    132988    |   138698  
      15  | 30:49.24 |  1:27.03 |    138699    |   145226  
      16  | 32:16.27 |  5:08.26 |    145227    |   168352  
      17  | 37:24.53 |  2:51.43 |    168353    |   181220  
      18  | 40:16.21 |  3:48.61 |    181221    |   198381  
      19  | 44:05.07 |  3:43.16 |    198382    |   215122  
      20  | 47:48.23 |  1:02.34 |    215123    |   219806  
      21  | 48:50.57 |  2:31.32 |    219807    |   231163  
      22  | 51:22.14 |  0:05.26 |    231164    |   231564  
      23  | 51:27.40 |  3:03.60 |    231565    |   245349  


Track  1

    Filename C:\Users\User\Downloads\Django Unchained (2012) [OST][Flac]\01 - James Russo - Winged.wav

    Pre-gap length  0:00:02.00

    Peak level 59.1 %
    Extraction speed 0.4 X
    Track quality 100.0 %
    Test CRC ACBE350A
    Copy CRC ACBE350A
    Accurately ripped (confidence 174)  [24A8AEEA]  (AR v2)
    Copy OK

Track  2

    Filename C:\Users\User\Downloads\Django Unchained (2012) [OST][Flac]\02 - Luis Bacalov & Rocky Roberts - Django.wav

    Peak level 99.5 %
    Extraction speed 2.1 X
    Track quality 100.0 %
    Test CRC EE07142B
    Copy CRC EE07142B
    Accurately ripped (confidence 179)  [B48E79F7]  (AR v2)
    Copy OK

Track  3

    Filename C:\Users\User\Downloads\Django Unchained (2012) [OST][Flac]\03 - Ennio Morricone - The Braying Mule.wav

    Pre-gap length  0:00:00.25

    Peak level 96.6 %
    Extraction speed 2.2 X
    Track quality 100.0 %
    Test CRC 541CA646
    Copy CRC 541CA646
    Accurately ripped (confidence 179)  [E2B43A0A]  (AR v2)
    Copy OK

Track  4

    Filename C:\Users\User\Downloads\Django Unchained (2012) [OST][Flac]\04 - Christoph Waltz & Jamie Foxx - ''In That Case Django, After You...''.wav

    Peak level 99.3 %
    Extraction speed 1.4 X
    Track quality 100.0 %
    Test CRC 37C12A40
    Copy CRC 37C12A40
    Accurately ripped (confidence 176)  [003B3EDC]  (AR v2)
    Copy OK

Track  5

    Filename C:\Users\User\Downloads\Django Unchained (2012) [OST][Flac]\05 - Luis Bacalov & Edda dell'Orso - Lo Chiamavano King (His Name Is King).wav

    Peak level 98.8 %
    Extraction speed 1.6 X
    Track quality 99.9 %
    Test CRC 38FFDE4E
    Copy CRC 38FFDE4E
    Accurately ripped (confidence 177)  [937E3B84]  (AR v2)
    Copy OK

Track  6

    Filename C:\Users\User\Downloads\Django Unchained (2012) [OST][Flac]\06 - Anthony Hamilton & Elayna Boynton - Freedom.wav

    Pre-gap length  0:00:00.45

    Peak level 93.0 %
    Extraction speed 1.8 X
    Track quality 99.9 %
    Test CRC 5CDBDD11
    Copy CRC 5CDBDD11
    Accurately ripped (confidence 17  [5099A0B4]  (AR v2)
    Copy OK

Track  7

    Filename C:\Users\User\Downloads\Django Unchained (2012) [OST][Flac]\07 - Don Johnson & Christoph Waltz - Five-Thousand-Dollar Nigga's And Gummy Mouth Bitches.wav

    Peak level 99.3 %
    Extraction speed 0.6 X
    Track quality 99.5 %
    Test CRC D4166DFF
    Copy CRC D4166DFF
    Accurately ripped (confidence 176)  [F37C616E]  (AR v2)
    Copy OK

Track  8

    Filename C:\Users\User\Downloads\Django Unchained (2012) [OST][Flac]\08 - Luis Bacalov - La Corsa (2nd Version).wav

    Peak level 96.7 %
    Extraction speed 0.5 X
    Track quality 99.4 %
    Test CRC 1ACE0758
    Copy CRC 1ACE0758
    Accurately ripped (confidence 179)  [A8532B32]  (AR v2)
    Copy OK

Track  9

    Filename C:\Users\User\Downloads\Django Unchained (2012) [OST][Flac]\09 - Don Stroud - Sneaky Schultz And The Demise Of Sharp.wav

    Pre-gap length  0:00:00.31

    Peak level 98.8 %
    Extraction speed 1.6 X
    Track quality 100.0 %
    Test CRC 17726A45
    Copy CRC 17726A45
    Accurately ripped (confidence 177)  [375BBF42]  (AR v2)
    Copy OK

Track 10

    Filename C:\Users\User\Downloads\Django Unchained (2012) [OST][Flac]\10 - Jim Croce - I Got A Name.wav

    Peak level 100.0 %
    Extraction speed 2.9 X
    Track quality 100.0 %
    Test CRC 0BB6DAC8
    Copy CRC 0BB6DAC8
    Accurately ripped (confidence 180)  [75C3B2F0]  (AR v2)
    Copy OK

Track 11

    Filename C:\Users\User\Downloads\Django Unchained (2012) [OST][Flac]\11 - Riz Ortolani - I Giorni Dell'Ira (Days Of Anger).wav

    Peak level 99.8 %
    Extraction speed 3.0 X
    Track quality 100.0 %
    Test CRC 14533738
    Copy CRC 14533738
    Accurately ripped (confidence 176)  [8BA2F35A]  (AR v2)
    Copy OK

Track 12

    Filename C:\Users\User\Downloads\Django Unchained (2012) [OST][Flac]\12 - Rick Ross - 100 Black Coffins.wav

    Peak level 100.0 %
    Extraction speed 3.3 X
    Track quality 100.0 %
    Test CRC AFBDFCB1
    Copy CRC AFBDFCB1
    Accurately ripped (confidence 177)  [C44AACFD]  (AR v2)
    Copy OK

Track 13

    Filename C:\Users\User\Downloads\Django Unchained (2012) [OST][Flac]\13 - Jerry Goldsmith feat. Pat Metheny - Nicaragua.wav

    Peak level 100.0 %
    Extraction speed 1.5 X
    Track quality 99.8 %
    Test CRC 3A983F9F
    Copy CRC 3A983F9F
    Accurately ripped (confidence 17  [DD22F04F]  (AR v2)
    Copy OK

Track 14

    Filename C:\Users\User\Downloads\Django Unchained (2012) [OST][Flac]\14 - Samuel L. Jackson, Leonardo Dicaprio & Christoph Waltz - Hildi's Hot Box.wav

    Peak level 99.6 %
    Extraction speed 2.7 X
    Track quality 100.0 %
    Test CRC A7FB1A80
    Copy CRC A7FB1A80
    Accurately ripped (confidence 177)  [AA88C337]  (AR v2)
    Copy OK

Track 15

    Filename C:\Users\User\Downloads\Django Unchained (2012) [OST][Flac]\15 - Ennio Morricone - Sister Sara's Theme.wav

    Peak level 96.3 %
    Extraction speed 1.9 X
    Track quality 99.8 %
    Test CRC 9F0B27D7
    Copy CRC 9F0B27D7
    Accurately ripped (confidence 180)  [1728BBED]  (AR v2)
    Copy OK

Track 16

    Filename C:\Users\User\Downloads\Django Unchained (2012) [OST][Flac]\16 - Elisa Toffoli - Ancora Qui.wav

    Pre-gap length  0:00:00.61

    Peak level 96.0 %
    Extraction speed 3.2 X
    Track quality 99.9 %
    Test CRC 4D7AF87F
    Copy CRC 4D7AF87F
    Accurately ripped (confidence 179)  [40C470D6]  (AR v2)
    Copy OK

Track 17

    Filename C:\Users\User\Downloads\Django Unchained (2012) [OST][Flac]\17 - James Brown , 2Pac - Unchained (The Payback , Untouchable).wav

    Peak level 100.0 %
    Extraction speed 1.9 X
    Track quality 99.8 %
    Test CRC 7D6F9488
    Copy CRC 7D6F9488
    Accurately ripped (confidence 179)  [6A77443B]  (AR v2)
    Copy OK

Track 18

    Filename C:\Users\User\Downloads\Django Unchained (2012) [OST][Flac]\18 - John Legend - Who Did That To You.wav

    Peak level 99.4 %
    Extraction speed 1.5 X
    Track quality 99.7 %
    Test CRC F1564DF2
    Copy CRC F1564DF2
    Accurately ripped (confidence 182)  [F626653F]  (AR v2)
    Copy OK

Track 19

    Filename C:\Users\User\Downloads\Django Unchained (2012) [OST][Flac]\19 - Brother Dege (a.k.a. Dege Legg) - Too Old To Die Young.wav

    Pre-gap length  0:00:00.12

    Peak level 97.9 %
    Extraction speed 1.2 X
    Track quality 99.6 %
    Test CRC 8F12298F
    Copy CRC 8F12298F
    Accurately ripped (confidence 179)  [FAF52DA3]  (AR v2)
    Copy OK

Track 20

    Filename C:\Users\User\Downloads\Django Unchained (2012) [OST][Flac]\20 - Samuel L. Jackson & Jamie Foxx - Stephen The Poker Player.wav

    Peak level 100.0 %
    Extraction speed 1.1 X
    Track quality 99.6 %
    Test CRC 84A17D73
    Copy CRC 84A17D73
    Accurately ripped (confidence 177)  [CBBCE932]  (AR v2)
    Copy OK

Track 21

    Filename C:\Users\User\Downloads\Django Unchained (2012) [OST][Flac]\21 - Ennio Morricone - Un Monumento.wav

    Peak level 98.5 %
    Extraction speed 1.8 X
    Track quality 99.7 %
    Test CRC 31A480E0
    Copy CRC 31A480E0
    Accurately ripped (confidence 181)  [67BD8A21]  (AR v2)
    Copy OK

Track 22

    Filename C:\Users\User\Downloads\Django Unchained (2012) [OST][Flac]\22 - Samuel L. Jackson & Jamie Foxx - Six Shots Two Guns.wav

    Pre-gap length  0:00:00.37

    Peak level 94.6 %
    Extraction speed 0.5 X
    Track quality 100.0 %
    Test CRC AFBE5046
    Copy CRC AFBE5046
    Track not present in AccurateRip database
    Copy OK

Track 23

    Filename C:\Users\User\Downloads\Django Unchained (2012) [OST][Flac]\23 - Annibale e i Cantori Moderni - Trinity (Titoli).wav

    Peak level 98.2 %
    Extraction speed 1.0 X
    Track quality 99.6 %
    Test CRC D1F7F0B9
    Copy CRC D1F7F0B9
    Accurately ripped (confidence 179)  [051428E0]  (AR v2)
    Copy OK


22 Traccia(e) estratta accuratamente
1 Traccia(e) non presente nel database AccurateRip

Some tracks could not be verified as accurate

No errors occurred

End of status report

==== Log checksum FAA157B8239E7D2A58A029A35CC763BFA4F0EBE8ABC23B83D844F63AD142C45B ====
Info: Per scaricare devi usare un client come uTorrent, o Azureus
AnnounceURL
udp://tracker.tntvillage.scambioetico.org:2710/announce
Hash cf51f85b625c6196668ab0c7cb8497c61f69ed97
Peers seeds: 55 , leech: 5
Size 328.40 MB
Completato 717x
Aggiunto 17.12.14 - 14:12:09
Uploader   Mo_Yan
Votazione (Voti: 0)


Condividi questo bittorrent:


html/blog:


bbcode/forum:


Tramite bookmarks:



Aggiungi Commento