* Dettagli Torrent   globale  | Commenti (0) 


- Lo Hobbit La desolazione di Smaug EXTRA Parte 9-10 ENG AC3 ITA ENG Sub BDRip 1080p X265 ZMachine -



Download via torrent:
                 
Categoria bittorrent DVDrip
Descrizione






:: Scheda del Film ::

Titolo Originale: The Hobbit: The Appendices Part 9-10
NazionalitÓ: USA
Anno: 2013
Genere: Contenuti Extra
Regia: Michael Pellerim
Durata: 300 Min

Cast:
Cast & Crew

Indice:

LE APPENDICI - PARTE: 9

Nelle Terre Selvagge:
Le Cronache de lo Hobbit - Parte 2

1. Un' accoglienza calorosa
2. Affari di stato
3. Rifugio sul Lago Lungo
4. Nelle sale del re degli Elfi

LE APPENDICI - PARTE: 10

Il viaggio verso Erebor

Invocando Smaug

5. L'Ultimo e Primo Drago
6. Conversazione con Smaug
7. Nella Tana del Drago

Le genti e gli abitanti della Terra di Mezzo

8. Beorn: Il Mutaforma
9. Le Progenie di Ungoliant
10. Gli Uomini di Pontelagolungo
11. Rifugio sul Lago Lungo

I luoghi della Terza EtÓ

12. La Casa di Beorn
13. La Foresta di Bosco Atro
14. Il Reame Boscoso
15. Pontelagolungo

La Musica de Lo Hobbit

16. Overture: Musica delle Terre Selvagge
17. 1░ Movimento: Il mondo degli uomini
18. 2░ Movimento: Nelle sale di Erebor

:: Screenshots ::

 

 

 

:: Mediainfo ::

Appendici: Parte 1

General
Unique ID                   : 208147420293434738435242434319251755017 (0x9C97BC264607D9B39223BD0B4A895009)
Complete name               : D:\extra\The.Hobbit.The.Desolation.of.Smaug.Appendices.ENG.AC3.ITA.ENG.Sub.BDRip.1080p.X264_ZMachine\The.Hobbit.Appendices.Part.9.ENG.AC3.ITA.ENG.Sub.BDRip.1080p.X264_ZMachine.mkv
Format                      : Matroska
Format version              : Version 4 / Version 2
File size                   : 6.30 GiB
Duration                    : 5h 0mn
Overall bit rate            : 3 001 Kbps
Movie name                  : Lo Hobbit: Appendici Parte 9 - Nelle Terre Selvagge: Le Cronache de Lo Hobbit (Parte 2) <ZMachine>
Encoded date                : UTC 2014-12-20 09:05:08
Writing application         : mkvmerge v7.2.0 ('On Every Street') 32bit built on Sep 13 2014 15:42:11
Writing library             : libebml v1.3.0 + libmatroska v1.4.1

Video
ID                          : 1
Format                      : AVC
Format/Info                 : Advanced Video Codec
Format profile              : [email protected]
Format settings, CABAC      : Yes
Format settings, ReFrames   : 4 frames
Codec ID                    : V_MPEG4/ISO/AVC
Duration                    : 5h 0mn
Bit rate                    : 2 807 Kbps
Width                       : 1 920 pixels
Height                      : 1 080 pixels
Display aspect ratio        : 16:9
Frame rate mode             : Constant
Frame rate                  : 23.976 fps
Color space                 : YUV
Chroma subsampling          : 4:2:0
Bit depth                   : 8 bits
Scan type                   : Progressive
Bits/(Pixel*Frame)          : 0.056
Stream size                 : 5.77 GiB (92%)
Title                       : Video H.264 (Encoded by ZMachine)
Writing library             : x264 core 142 r2431 ac76440
Encoding settings           : cabac=1 / ref=4 / deblock=1:-1:-1 / analyse=0x3:0x133 / me=umh / subme=11 / psy=1 / psy_rd=1.00:0.15 / mixed_ref=1 / me_range=24 / chroma_me=1 / trellis=2 / 8x8dct=1 / cqm=0 / deadzone=21,11 / fast_pskip=1 / chroma_qp_offset=-3 / threads=30 / lookahead_threads=3 / sliced_threads=0 / nr=0 / decimate=1 / interlaced=0 / bluray_compat=0 / constrained_intra=0 / bframes=4 / b_pyramid=2 / b_adapt=2 / b_bias=0 / direct=3 / weightb=1 / open_gop=0 / weightp=2 / keyint=240 / keyint_min=23 / scenecut=40 / intra_refresh=0 / rc_lookahead=60 / rc=2pass / mbtree=1 / bitrate=2807 / ratetol=1.0 / qcomp=0.60 / qpmin=0 / qpmax=69 / qpstep=4 / cplxblur=20.0 / qblur=0.5 / vbv_maxrate=50000 / vbv_bufsize=50000 / nal_hrd=none / filler=0 / ip_ratio=1.40 / aq=1:1.00
Default                     : Yes
Forced                      : No
Matrix coefficients         : BT.709
Color range                 : Limited

Audio
ID                          : 2
Format                      : AC-3
Format/Info                 : Audio Coding 3
Format profile              : Dolby Digital
Mode extension              : CM (complete main)
Format settings, Endianness : Big
Codec ID                    : A_AC3
Duration                    : 5h 0mn
Bit rate mode               : Constant
Bit rate                    : 192 Kbps
Channel(s)                  : 2 channels
Channel positions           : Front: L R
Sampling rate               : 48.0 KHz
Bit depth                   : 16 bits
Compression mode            : Lossy
Stream size                 : 413 MiB (6%)
Title                       : Audio AC3 2.0
Language                    : English
Default                     : Yes
Forced                      : No

Text #1
ID                          : 3
Format                      : ASS
Codec ID                    : S_TEXT/ASS
Codec ID/Info               : Advanced Sub Station Alpha
Compression mode            : Lossless
Title                       : Sub
Language                    : Italian
Default                     : No
Forced                      : No

Text #2
ID                          : 4
Format                      : ASS
Codec ID                    : S_TEXT/ASS
Codec ID/Info               : Advanced Sub Station Alpha
Compression mode            : Lossless
Title                       : Sub
Language                    : English
Default                     : No
Forced                      : No

Menu
00:00:00.000                : Chapter 01
00:03:22.702                : Chapter 02
00:12:34.670                : Chapter 03
00:20:16.757                : Chapter 04
00:24:04.234                : Chapter 05
00:32:38.247                : Chapter 06
00:41:13.053                : Chapter 07
00:47:54.872                : Chapter 08
00:55:06.928                : Chapter 09
01:00:28.207                : Chapter 10
01:03:54.914                : Chapter 11
01:08:06.207                : Chapter 12
01:27:05.970                : Chapter 13
01:30:49.235                : Chapter 14
01:37:24.004                : Chapter 15
01:43:52.935                : Chapter 16
01:46:09.821                : Chapter 17
01:50:01.803                : Chapter 18
01:56:39.492                : Chapter 19
02:07:06.869                : Chapter 20
02:17:06.259                : Chapter 21
02:24:34.248                : Chapter 22
02:34:01.774                : Chapter 23
02:44:38.952                : Chapter 24
02:52:21.914                : Chapter 25
03:08:59.536                : Chapter 26
03:14:10.055                : Chapter 27
03:18:26.519                : Chapter 28
03:34:09.253                : Chapter 29
03:48:00.333                : Chapter 30
03:50:03.581                : Chapter 31
03:52:23.095                : Chapter 32
03:55:33.619                : Chapter 33
03:57:56.512                : Chapter 34
04:00:24.660                : Chapter 35
04:04:06.173                : Chapter 36
04:08:14.296                : Chapter 37
04:14:21.746                : Chapter 38
04:17:00.446                : Chapter 39
04:19:50.700                : Chapter 40
04:24:36.235                : Chapter 41
04:31:36.321                : Chapter 42
04:34:05.846                : Chapter 43
04:36:05.966                : Chapter 44
04:40:46.538                : Chapter 45
04:49:04.035                : Chapter 46
04:52:27.821                : Chapter 47
04:57:01.220                : Chapter 48

Appendici: Parte 2

General
Unique ID                   : 224516665299486954764525466498966810882 (0xA8E8563D34A8B63FA4412E7138F8F102)
Complete name               : D:\extra\The.Hobbit.Appendices.Part.10.ENG.AC3.ITA.ENG.Sub.BDRip.1080p.X264_ZMachine.mkv
Format                      : Matroska
Format version              : Version 4 / Version 2
File size                   : 6.53 GiB
Duration                    : 5h 5mn
Overall bit rate            : 3 058 Kbps
Movie name                  : Lo Hobbit: Appendici Parte 10 - Il Viaggio verso Erebor <ZMachine>
Encoded date                : UTC 2014-12-21 10:08:19
Writing application         : mkvmerge v7.2.0 ('On Every Street') 32bit built on Sep 13 2014 15:42:11
Writing library             : libebml v1.3.0 + libmatroska v1.4.1

Video
ID                          : 1
Format                      : AVC
Format/Info                 : Advanced Video Codec
Format profile              : [email protected]
Format settings, CABAC      : Yes
Format settings, ReFrames   : 4 frames
Codec ID                    : V_MPEG4/ISO/AVC
Duration                    : 5h 5mn
Bit rate                    : 2 810 Kbps
Width                       : 1 920 pixels
Height                      : 1 080 pixels
Display aspect ratio        : 16:9
Frame rate mode             : Constant
Frame rate                  : 23.976 fps
Color space                 : YUV
Chroma subsampling          : 4:2:0
Bit depth                   : 8 bits
Scan type                   : Progressive
Bits/(Pixel*Frame)          : 0.057
Stream size                 : 5.99 GiB (92%)
Title                       : Video H.264 (Encoded by ZMachine)
Writing library             : x264 core 142 r2431 ac76440
Encoding settings           : cabac=1 / ref=4 / deblock=1:-1:-1 / analyse=0x3:0x133 / me=umh / subme=11 / psy=1 / psy_rd=1.00:0.15 / mixed_ref=1 / me_range=24 / chroma_me=1 / trellis=2 / 8x8dct=1 / cqm=0 / deadzone=21,11 / fast_pskip=1 / chroma_qp_offset=-3 / threads=30 / lookahead_threads=3 / sliced_threads=0 / nr=0 / decimate=1 / interlaced=0 / bluray_compat=0 / constrained_intra=0 / bframes=4 / b_pyramid=2 / b_adapt=2 / b_bias=0 / direct=3 / weightb=1 / open_gop=0 / weightp=2 / keyint=240 / keyint_min=23 / scenecut=40 / intra_refresh=0 / rc_lookahead=60 / rc=2pass / mbtree=1 / bitrate=2810 / ratetol=1.0 / qcomp=0.60 / qpmin=0 / qpmax=69 / qpstep=4 / cplxblur=20.0 / qblur=0.5 / vbv_maxrate=50000 / vbv_bufsize=50000 / nal_hrd=none / filler=0 / ip_ratio=1.40 / aq=1:1.00
Default                     : Yes
Forced                      : No
Matrix coefficients         : BT.709
Color range                 : Limited

Audio
ID                          : 2
Format                      : AC-3
Format/Info                 : Audio Coding 3
Format profile              : Dolby Digital
Mode extension              : CM (complete main)
Format settings, Endianness : Big
Codec ID                    : A_AC3
Duration                    : 5h 5mn
Bit rate mode               : Constant
Bit rate                    : 192 Kbps
Channel(s)                  : 2 channels
Channel positions           : Front: L R
Sampling rate               : 48.0 KHz
Bit depth                   : 16 bits
Compression mode            : Lossy
Stream size                 : 420 MiB (6%)
Title                       : Audio AC3 2.0
Language                    : English
Default                     : Yes
Forced                      : No

Text #1
ID                          : 3
Format                      : ASS
Codec ID                    : S_TEXT/ASS
Codec ID/Info               : Advanced Sub Station Alpha
Compression mode            : Lossless
Title                       : Sub
Language                    : Italian
Default                     : No
Forced                      : No

Text #2
ID                          : 4
Format                      : ASS
Codec ID                    : S_TEXT/ASS
Codec ID/Info               : Advanced Sub Station Alpha
Compression mode            : Lossless
Title                       : Sub
Language                    : English
Default                     : No
Forced                      : No

Menu
00:00:00.000                : Chapter 01
00:08:12.992                : Chapter 02
00:18:26.188                : Chapter 03
00:26:08.024                : Chapter 04
00:30:39.712                : Chapter 05
00:37:01.719                : Chapter 06
00:39:14.185                : Chapter 07
00:45:31.687                : Chapter 08
00:50:40.078                : Chapter 09
00:57:22.480                : Chapter 10
01:03:22.006                : Chapter 11
01:06:41.622                : Chapter 12
01:09:58.319                : Chapter 13
01:15:58.220                : Chapter 14
01:20:10.096                : Chapter 15
01:24:38.198                : Chapter 16
01:29:17.560                : Chapter 17
01:31:52.506                : Chapter 18
01:35:57.918                : Chapter 19
01:40:43.746                : Chapter 20
01:44:41.775                : Chapter 21
01:48:59.074                : Chapter 22
01:52:23.862                : Chapter 23
01:57:04.934                : Chapter 24
02:07:16.670                : Chapter 25
02:11:32.759                : Chapter 26
02:18:44.149                : Chapter 27
02:22:08.436                : Chapter 28
02:27:03.940                : Chapter 29
02:28:53.924                : Chapter 30
02:33:38.208                : Chapter 31
02:44:09.339                : Chapter 32
02:53:26.562                : Chapter 33
02:58:10.179                : Chapter 34
03:03:29.581                : Chapter 35
03:06:49.948                : Chapter 36
03:10:13.819                : Chapter 37
03:14:13.933                : Chapter 38
03:18:14.048                : Chapter 39
03:23:50.051                : Chapter 40
03:25:28.441                : Chapter 41
03:31:05.903                : Chapter 42
03:34:03.080                : Chapter 43
03:39:51.136                : Chapter 44
03:42:40.889                : Chapter 45
03:44:16.651                : Chapter 46
03:46:20.441                : Chapter 47
03:47:39.979                : Chapter 48
03:51:36.757                : Chapter 49
03:54:26.635                : Chapter 50
04:00:47.975                : Chapter 51
04:04:25.525                : Chapter 52
04:07:57.278                : Chapter 53
04:12:02.649                : Chapter 54
04:15:41.159                : Chapter 55
04:18:23.696                : Chapter 56
04:22:11.048                : Chapter 57
04:25:40.340                : Chapter 58
04:31:56.133                : Chapter 59
04:35:40.607                : Chapter 60
04:39:11.359                : Chapter 61
04:42:28.473                : Chapter 62
04:47:29.106                : Chapter 63
04:50:57.398                : Chapter 64
04:54:24.396                : Chapter 65
04:56:04.454                : Chapter 66
05:01:29.571                : Chapter 67
05:05:51.499                : Chapter 68
Info: Per scaricare devi usare un client come uTorrent, o Azureus
AnnounceURL
http://tracker.tntvillage.scambioetico.org:2710/announce
Hash 97ece170bcfd7ca707d9043ec2e6cc926a0ababb
Peers seeds: 33 , leech: 63
Size 12.83 GB
Completato 289x
Aggiunto 22.12.14 - 05:12:29
Uploader   ZMachine
Votazione (Voti: 0)


Condividi questo bittorrent:


html/blog:


bbcode/forum:


Tramite bookmarks:



Aggiungi Commento