* Dettagli Torrent   globale  | Commenti (0) 


- Howard Shore - Il Signore degli Anelli: Le Due Torri OST ALAC ZMachine -



Download via torrent:
                 
Categoria bittorrent Musica
Descrizione






:: Album Info ::

Film di riferimento: Peter Jackson - Il Signore degli Anelli: Le Due Torri
Artista: Howard Shore
Anno: 2002                              
Genere: Soundtrack

:: Tracklist ::

1. "Foundations of Stone" 3:51
2. "The Taming of Sméagol" 2:48
3. "The Riders of Rohan" 4:05
4. "The Passage of the Marshes" 2:46
5. "The Uruk-hai" 2:58
6. "The King of the Golden Hall" 3:49
7. "The Black Gate Is Closed" 3:17
8. "Evenstar" (feat. Isabel Bayrakdarian) 3:15
9. "The White Rider" 2:28
10. "Treebeard" 2:43
11. "The Leave Taking" 3:41
12. "Helm's Deep" 3:53
13. "The Forbidden Pool" 5:27
14. "Breath of Life" (feat. Sheila Chandra) 5:07
15. "The Hornburg" 4:36
16. "Forth Eorlingas" (feat. Ben Del Maestro) 3:15
17. "Isengard Unleashed" (feat. Elizabeth Fraser and Ben Del Maestro) 5:01
18. "Samwise the Brave" 3:46
19. "Gollum's Song" (performed by Emilíana Torrini, lyrics by Fran Walsh) 5:51

:: Review ::

Dopo una colonna sonora importante come quella de La compagnia dell’anello, che gli è valsa anche un premio Oscar, Howard Shore aveva bisogno di qualche aiuto dal mondo esterno; man mano che la storia de Il signore degli anelli fa il suo corso, si uniscono al cast iniziale composto da Shore (alla direzione), la London Philharmonic, i cori del Voices of London e della Oratory School Schola Boys’ Choir nuovi elementi: il giovane soprano Ben Del Maestro, la cantante di origini indiane ma nata e cresciuta in Inghilterra Sheila Chandra, e l’ugola angelica dei Cocteau Twins Elizabeth Fraser oltre alla voce dell’italo-islandese Emiliana Torrini (Gollum’s Song) forse l’unica componente davvero pop di tutta l’opera, ma che regala un’interpretazione degna dell’avventura nella Terra di Mezzo. Intorno a queste divine creature dalle sembianze e dai timbri così diversi prende forma la storia de Le Due Torri, qui narrata musicalmente come proseguimento logico al primo episodio della saga, senza però cadere nella tentazione e nella trappola della ripetitività. Shore amplia il mondo sonoro de Il signore degli anelli utilizzando nuovi strumenti, oltre a quelli celtici già usati nel primo capitolo: l’hardinger, un violino norvegese, per creare il segno di riconoscimento di Rohan, il rhaita, una sorta di oboe comune fra i musicisti nordafricani, per descrivere il tema di Mordor, e poi il cimbalon, il dilruba (una specie di violino dal manico lungo) il log drum e tanti altri strumenti tradizionali provenienti da tutto il mondo messi insieme da Shore per creare ambientazioni uniche a dipingere le terre fantastiche e i fantastici personaggi nati dalla penna del filologo e narratore britannico. Così Le Due Torri riconferma la grandiosità di un compositore che ha saputo far sue le visioni di Tolkien – e di Peter Jackson – trasformandole in musica maestosa.

:: Mediainfo ::

Mediainfo

General
Complete name                            : H:\ALAC\Howard Shore - Lord Of The Rings\The Two Towers\Foundations of Stone.m4a
Format                                   : MPEG-4
Format profile                           : Apple audio with iTunes info
Codec ID                                 : M4A
File size                                : 21.0 MiB
Duration                                 : 3mn 51s
Overall bit rate mode                    : Variable
Overall bit rate                         : 759 Kbps
Album                                    : The Lord Of The Rings - The Two Towers
Album/Performer                          : Howard Shore
Part/Position                            : 1
Track name                               : Foundations of Stone
Track name/Position                      : 1
Performer                                : Howard Shore
Composer                                 : Howard Shore
Genre                                    : Soundtrack
Recorded date                            : 2002
Encoded date                             : UTC 1970-01-01 00:00:00
Tagged date                              : UTC 1970-01-01 00:00:00
Writing application                      : Lavf52.93.0
Cover                                    : Yes

Audio
ID                                       : 1
Format                                   : ALAC
Codec ID                                 : alac
Codec ID/Info                            : Apple Lossless Audio Codec
Duration                                 : 3mn 51s
Duration_LastFrame                       : -54ms
Bit rate mode                            : Variable
Bit rate                                 : 752 Kbps
Nominal bit rate                         : 1 411 Kbps
Channel(s)                               : 2 channels
Sampling rate                            : 44.1 KHz
Bit depth                                : 16 bits
Stream size                              : 20.8 MiB (99%)
Encoded date                             : UTC 1970-01-01 00:00:00
Tagged date                              : UTC 1970-01-01 00:00:00

LOG EAC

Exact Audio Copy V0.99 prebeta 5 from 4. May 2009

EAC extraction logfile from 31. August 2010, 15:55

Howard Shore / The Lord Of The Rings - The Two Towers

Used drive  : Optiarc DVD RW AD-7170S   Adapter: 1  ID: 0

Read mode               : Secure
Utilize accurate stream : Yes
Defeat audio cache      : No
Make use of C2 pointers : No

Read offset correction                      : 48
Overread into Lead-In and Lead-Out          : No
Fill up missing offset samples with silence : Yes
Delete leading and trailing silent blocks   : No
Null samples used in CRC calculations       : Yes
Used interface                              : Native Win32 interface for Win NT & 2000
Gap handling                                : Appended to previous track

Used output format              : User Defined Encoder
Selected bitrate                : 320 kBit/s
Quality                         : High
Add ID3 tag                     : No
Command line compressor         : C:\Program Files\Exact Audio Copy\Flac\flac.exe
Additional command line options : -V -8 -T "artist=%a" -T "title=%t" -T "album=%g" -T "date=%y" -T "tracknumber=%n" -T "genre=%m" %s  


TOC of the extracted CD

    Track |   Start  |  Length  | Start sector | End sector
   ---------------------------------------------------------
       1  |  0:00.00 |  3:51.72 |         0    |    17396  
       2  |  3:51.72 |  2:48.68 |     17397    |    30064  
       3  |  6:40.65 |  4:05.40 |     30065    |    48479  
       4  | 10:46.30 |  2:46.15 |     48480    |    60944  
       5  | 13:32.45 |  2:58.37 |     60945    |    74331  
       6  | 16:31.07 |  3:49.33 |     74332    |    91539  
       7  | 20:20.40 |  3:17.50 |     91540    |   106364  
       8  | 23:38.15 |  3:15.45 |    106365    |   121034  
       9  | 26:53.60 |  2:28.27 |    121035    |   132161  
      10  | 29:22.12 |  2:43.53 |    132162    |   144439  
      11  | 32:05.65 |  3:41.37 |    144440    |   161051  
      12  | 35:47.27 |  3:53.03 |    161052    |   178529  
      13  | 39:40.30 |  5:27.30 |    178530    |   203084  
      14  | 45:07.60 |  5:07.55 |    203085    |   226164  
      15  | 50:15.40 |  4:36.57 |    226165    |   246921  
      16  | 54:52.22 |  3:15.50 |    246922    |   261596  
      17  | 58:07.72 |  5:01.03 |    261597    |   284174  
      18  | 63:09.00 |  3:46.00 |    284175    |   301124  
      19  | 66:55.00 |  5:51.25 |    301125    |   327474  
      20  | 75:18.25 |  3:33.74 |    338875    |   354923  


Track  1

    Filename F:\Ripped\Howard Shore - 2002 - The Lord Of The Rings - The Two Towers [FLAC]\01 - Foundations of Stone.wav

    Pre-gap length  0:00:02.00

    Peak level 98.8 %
    Track quality 100.0 %
    Test CRC F619E0BC
    Copy CRC F619E0BC
    Accurately ripped (confidence 200)  [3BBB8C68]
    Copy OK

Track  2

    Filename F:\Ripped\Howard Shore - 2002 - The Lord Of The Rings - The Two Towers [FLAC]\02 - The Taming of Sméagol.wav

    Peak level 93.7 %
    Track quality 100.0 %
    Test CRC 76871C2F
    Copy CRC 76871C2F
    Accurately ripped (confidence 200)  [DA6D5594]
    Copy OK

Track  3

    Filename F:\Ripped\Howard Shore - 2002 - The Lord Of The Rings - The Two Towers [FLAC]\03 - The Riders of Rohan.wav

    Peak level 99.1 %
    Track quality 100.0 %
    Test CRC A4D008FB
    Copy CRC A4D008FB
    Accurately ripped (confidence 200)  [803570FE]
    Copy OK

Track  4

    Filename F:\Ripped\Howard Shore - 2002 - The Lord Of The Rings - The Two Towers [FLAC]\04 - The Passage of the Marshes.wav

    Peak level 98.6 %
    Track quality 100.0 %
    Test CRC C332596E
    Copy CRC C332596E
    Accurately ripped (confidence 200)  [69D83933]
    Copy OK

Track  5

    Filename F:\Ripped\Howard Shore - 2002 - The Lord Of The Rings - The Two Towers [FLAC]\05 - The Uruk-hai.wav

    Peak level 99.0 %
    Track quality 100.0 %
    Test CRC BE2344FD
    Copy CRC BE2344FD
    Accurately ripped (confidence 200)  [3CAA2A11]
    Copy OK

Track  6

    Filename F:\Ripped\Howard Shore - 2002 - The Lord Of The Rings - The Two Towers [FLAC]\06 - The King of the Golden Hall.wav

    Peak level 99.0 %
    Track quality 99.9 %
    Test CRC 96C17840
    Copy CRC 96C17840
    Accurately ripped (confidence 200)  [8F83D462]
    Copy OK

Track  7

    Filename F:\Ripped\Howard Shore - 2002 - The Lord Of The Rings - The Two Towers [FLAC]\07 - The Black Gate is Closed.wav

    Peak level 99.1 %
    Track quality 100.0 %
    Test CRC 2BD984F3
    Copy CRC 2BD984F3
    Accurately ripped (confidence 200)  [DD108D2E]
    Copy OK

Track  8

    Filename F:\Ripped\Howard Shore - 2002 - The Lord Of The Rings - The Two Towers [FLAC]\08 - Evenstar (feat. Isabel Bayrakdarian).wav

    Peak level 34.2 %
    Track quality 99.9 %
    Test CRC BDE46D65
    Copy CRC BDE46D65
    Accurately ripped (confidence 200)  [B938DBEC]
    Copy OK

Track  9

    Filename F:\Ripped\Howard Shore - 2002 - The Lord Of The Rings - The Two Towers [FLAC]\09 - The White Rider.wav

    Peak level 99.0 %
    Track quality 100.0 %
    Test CRC 15EB4637
    Copy CRC 15EB4637
    Accurately ripped (confidence 200)  [DEAFE2E0]
    Copy OK

Track 10

    Filename F:\Ripped\Howard Shore - 2002 - The Lord Of The Rings - The Two Towers [FLAC]\10 - Treebeard.wav

    Peak level 96.6 %
    Track quality 99.9 %
    Test CRC 4BA5AE3F
    Copy CRC 4BA5AE3F
    Accurately ripped (confidence 200)  [98C4B176]
    Copy OK

Track 11

    Filename F:\Ripped\Howard Shore - 2002 - The Lord Of The Rings - The Two Towers [FLAC]\11 - The Leave Taking.wav

    Peak level 35.1 %
    Track quality 99.9 %
    Test CRC 3E6EF270
    Copy CRC 3E6EF270
    Accurately ripped (confidence 200)  [3F6BE892]
    Copy OK

Track 12

    Filename F:\Ripped\Howard Shore - 2002 - The Lord Of The Rings - The Two Towers [FLAC]\12 - Helm's Deep.wav

    Peak level 99.1 %
    Track quality 100.0 %
    Test CRC F76D388D
    Copy CRC F76D388D
    Accurately ripped (confidence 200)  [8220FD86]
    Copy OK

Track 13

    Filename F:\Ripped\Howard Shore - 2002 - The Lord Of The Rings - The Two Towers [FLAC]\13 - The Forbidden Pool.wav

    Peak level 49.1 %
    Track quality 99.9 %
    Test CRC 068A4FB3
    Copy CRC 068A4FB3
    Accurately ripped (confidence 200)  [A0CF1C11]
    Copy OK

Track 14

    Filename F:\Ripped\Howard Shore - 2002 - The Lord Of The Rings - The Two Towers [FLAC]\14 - Breath of Life (feat. Sheila Chandra).wav

    Peak level 99.2 %
    Track quality 100.0 %
    Test CRC 073B2964
    Copy CRC 073B2964
    Accurately ripped (confidence 200)  [22A47AF1]
    Copy OK

Track 15

    Filename F:\Ripped\Howard Shore - 2002 - The Lord Of The Rings - The Two Towers [FLAC]\15 - The Hornburg.wav

    Peak level 99.1 %
    Track quality 100.0 %
    Test CRC 3A18750A
    Copy CRC 3A18750A
    Accurately ripped (confidence 200)  [EA7458E0]
    Copy OK

Track 16

    Filename F:\Ripped\Howard Shore - 2002 - The Lord Of The Rings - The Two Towers [FLAC]\16 - Forth Eorlingas (feat. Ben Del Maestro).wav

    Peak level 99.1 %
    Track quality 100.0 %
    Test CRC 045CA25F
    Copy CRC 045CA25F
    Accurately ripped (confidence 200)  [B4D273BC]
    Copy OK

Track 17

    Filename F:\Ripped\Howard Shore - 2002 - The Lord Of The Rings - The Two Towers [FLAC]\17 - Isengard Unleashed (feat. Elizabeth Fraser & Ben Del Maestro).wav

    Peak level 99.1 %
    Track quality 100.0 %
    Test CRC 591B4314
    Copy CRC 591B4314
    Accurately ripped (confidence 200)  [DD8B45D7]
    Copy OK

Track 18

    Filename F:\Ripped\Howard Shore - 2002 - The Lord Of The Rings - The Two Towers [FLAC]\18 - Samwise the Brave.wav

    Peak level 84.5 %
    Track quality 100.0 %
    Test CRC 82A9547D
    Copy CRC 82A9547D
    Accurately ripped (confidence 200)  [3154D241]
    Copy OK

Track 19

    Filename F:\Ripped\Howard Shore - 2002 - The Lord Of The Rings - The Two Towers [FLAC]\19 - Gollum's Song (feat. Emiliana Torrini).wav

    Peak level 99.1 %
    Track quality 99.9 %
    Test CRC A6F32CE5
    Copy CRC A6F32CE5
    Accurately ripped (confidence 200)  [C436661E]
    Copy OK


All tracks accurately ripped

No errors occurred

End of status report



Info: Per scaricare devi usare un client come uTorrent, o Azureus
AnnounceURL
http://tracker.tntvillage.scambioetico.org:2710/announce
Hash 488d2eb207772e508e7cd67203bb8399680c286e
Peers seeds: 24 , leech: 7
Size 363.37 MB
Completato 289x
Aggiunto 22.12.14 - 06:12:34
Uploader   ZMachine
Votazione (Voti: 0)


Condividi questo bittorrent:


html/blog:


bbcode/forum:


Tramite bookmarks:



Aggiungi Commento