* Dettagli Torrent   globale  | Commenti (3) 


- Attacco al Potere - Olympus Has Fallen (2013).BRrip.XviD - Italian English Ac3 5.1 - Sub Ita MIRCrew -



Download via torrent:
                 
Categoria bittorrent DVDrip
Descrizione
Olympus Has Fallen - Attacco al Potere (2013).BRrip.XviD - Italian English Ac3 5.1 - Sub Ita MIRCrew

Attacco al Potere - Olympus Has Fallen (2013).BRrip.XviD - Italian English Ac3 5.1 - Sub Ita MIRCrew



[center]



NO FOUND ONLY ORIGINAL RELEASE



Attacco al Potere - Olympus Has Fallen (2013)




 



Titolo originale Olympus Has Fallen
Lingua originale inglese
Paese di produzione Stati Uniti d'America
Anno 2013
Durata 120 minuti
Genere azione, thriller
Regia Antoine Fuqua
Sceneggiatura Katrin Benedikt, Creighton Rothenberger
Produttore Gerard Butler, Antoine Fuqua, Ed Cathell III, Mark Gill, Alan Siegel
Produttore esecutivo Boaz Davidson, Mark Gill, Avi Lerner, Heidi Jo Markel, Trevor Short
Casa di produzione Nu Image, Gerald Butler Alan Siegel Entertainment, Millennium Films, Modern VideoFilm, West Coast Film Partners
Distribuzione (Italia) Notorius Pictures
Fotografia Conrad W. Hall
Montaggio John Refoua
Musiche Trevor Morris
Scenografia Derek R. Hill
Costumi Doug Hall




   Gerard Butler: Mike Banning
   Aaron Eckhart: Presidente Benjamin Asher
   Morgan Freeman: Portavoce Allan Trumbull
   Angela Bassett: Lynne Jacobs
   Dylan McDermott: Agente speciale Dave Forbes
   Rick Yune: Kang Yeonsak
   Radha Mitchell: Leah Banning
   Cole Hauser: Agente Roma
   Melissa Leo: Ruth McMillan
   Robert Forster: Generale Edward Clegg
   Finley Jacobsen: Connor
   Ashley Judd: First Lady Margaret Asher
   Malana Lea: Lim



.

Alla Vigilia di Natale, in un incidente d'auto, la first lady USA perde la vita insieme a quattro uomini della sicurezza. Mike Banning, uno degli agenti facenti parte della scorta, molto vicino alla famiglia presidenziale, viene sollevato dal suo incarico per aver prestato soccorso unicamente al presidente e non alla first lady. Diciotto mesi dopo, l'ex agente si ritrova a lavorare dietro una scrivania del Ministero del Tesoro, senza per mai abituarsi al nuovo e semplice stile di vita. ............



Disgraced former Presidential guard Mike Banning finds himself trapped inside the White House in the wake of a terrorist attack; using his inside knowledge, Banning works with national security to rescue the President from his kidnappers...........








[spoiler]
General
Complete name                            : Attacco Al Potere (2013).ita.eng.sub.ita.eng.MIRCrew\Attacco Al Potere (2013).ita.eng.sub.ita.eng.MIRCrew.avi
Format                                   : AVI
Format/Info                              : Audio Video Interleave
Format profile                           : OpenDML
File size                                : 1.99 GiB
Duration                                 : 1h 59mn
Overall bit rate                         : 2 386 Kbps
Movie name                               : MIRCrew by robbyrs
Writing application                      : VirtualDubMod 1.5.10.2 (build 2540/release)
Writing library                          : VirtualDubMod build 2540/release

Video
ID                                       : 0
Format                                   : MPEG-4 Visual
Format profile                           : Simple@L3
Format settings, BVOP                    : No
Format settings, QPel                    : No
Format settings, GMC                     : No warppoints
Format settings, Matrix                  : Default (H.263)
Codec ID                                 : XVID
Codec ID/Hint                            : XviD
Duration                                 : 1h 59mn
Bit rate                                 : 1 471 Kbps
Width                                    : 720 pixels
Height                                   : 300 pixels
Display aspect ratio                     : 2.40:1
Frame rate                               : 24.000 fps
Color space                              : YUV
Chroma subsampling                       : 4:2:0
Bit depth                                : 8 bits
Scan type                                : Progressive
Compression mode                         : Lossy
Bits/(Pixel*Frame)                       : 0.284
Stream size                              : 1.23 GiB (62%)
Writing library                          : XviD 64

Audio #1
ID                                       : 1
Format                                   : AC-3
Format/Info                              : Audio Coding 3
Mode extension                           : CM (complete main)
Codec ID                                 : 2000
Duration                                 : 1h 59mn
Bit rate mode                            : Constant
Bit rate                                 : 448 Kbps
Channel(s)                               : 6 channels
Channel positions                        : Front: L C R, Side: L R, LFE
Sampling rate                            : 48.0 KHz
Bit depth                                : 16 bits
Compression mode                         : Lossy
Stream size                              : 383 MiB (19%)
Alignment                                : Split accross interleaves
Interleave, duration                     : 42 ms (1.00 video frame)
Interleave, preload duration             : 500 ms

Audio #2
ID                                       : 2
Format                                   : AC-3
Format/Info                              : Audio Coding 3
Mode extension                           : CM (complete main)
Codec ID                                 : 2000
Duration                                 : 1h 59mn
Bit rate mode                            : Constant
Bit rate                                 : 448 Kbps
Channel(s)                               : 6 channels
Channel positions                        : Front: L C R, Side: L R, LFE
Sampling rate                            : 48.0 KHz
Bit depth                                : 16 bits
Compression mode                         : Lossy
Stream size                              : 383 MiB (19%)
Alignment                                : Split accross interleaves
Interleave, duration                     : 42 ms (1.00 video frame)
Interleave, preload duration             : 500 ms





[/spoiler]

[/center]
Info: Per scaricare devi usare un client come uTorrent, o Azureus
AnnounceURL
udp://open.demonii.com:1337/announce
Hash 0c65e3d95340535e0a8993396c49f7795ebfbb49
Peers seeds: 170 , leech: 140
Size 2.00 GB
Completato 1430x
Aggiunto 20.01.15 - 08:01:53
Uploader   robbyrs
Votazione (Voti: 0)


Condividi questo bittorrent:


html/blog:


bbcode/forum:


Tramite bookmarks:



Aggiungi Commento
Ultimi commenti
   robbyrs   
poi si scrive a parte e non apparte

senti le tracce sovrapposte perch usi wmp che fa obrobio, usa VLC sul pc e sul lettore di casa sar selezionabile come per i dvd

e poi un cacchio di grazie ci potrebbe anche stare

prego  
23/01 13.31
avatar     
apparte la traduzione del titolo, il film si vede bene ma l'audio na schifezza, si sentono sia inglese che italiano
22/01 12.53
  
Chi diavolo a dettare un titolo cosi fuori luogo e copiato,era difficile dare il titolo con traduzione originale L'olimpo caduto, ma forse difettiamo di traduttori, per un capolavoro come questo, A9 V9
20/01 21.13
Tutti commenti (3)