* Dettagli Torrent   globale  | Commenti (0) 


- A Case Of You (2013).BRrip.XviD - Italian English Ac3 5.1 - Sub Ita MIRCrew -



Download via torrent:
                 
Categoria bittorrent DVDrip
Descrizione
A Case Of You (2013).BRrip.XviD - Italian English Ac3 5.1 - Sub Ita MIRCrew


[center]



NO FOUND ONLY ORIGINAL RELEASE


A Case Of You (2013)




 



Titolo originale A Case of You
Lingua originale inglese
Paese di produzione Stati Uniti d'America
Anno 2013
Durata 91 minuti
Genere commedia, sentimentale
Regia Kat Coiro
Soggetto Christian Long
Sceneggiatura Justin Long, Keir O'Donnell
Produttore Jesse Kennedy, Logan Levy, Justin Long, Keir O'Donnell, Holly Wiersma
Produttore esecutivo Christa Campbell, Robert Ogden Barnum, Cassian Elwes, Lati Grobman, Christian Long, Jessica Neuman, Brice Sanderford
Casa di produzione Lagniappe Films, I'm So Sorry Productions
Fotografia Doug Chamberlain
Montaggio Adam Catino, Matt Landon
Musiche Mateo Messina
Scenografia Rick Butler
Costumi Lynn Falconer
Trucco Joanna Stewart





   Justin Long: Sam
   Evan Rachel Wood: Birdie Hazel
   Sienna Miller: Sarah
   Peter Dinklage: Gerard
   Brendan Fraser: Tony
   Sam Rockwell: Gary
   Vince Vaughn: Alan
   Busy Philipps: Ashley
   Keir O'Donnell: Eliot
   Scott Adsit: Presentatore
   Mizuo Peck: Emily
   Priscilla Lopez: Mercedes


.

Sam un giovane scrittore in cerca di ispirazione che scrive su commissione romanzi tratti da film di successo. innamorato di Birdie, la ragazza che serve al bar dove va ogni mattina, e che gli fa da musa per il nuovo romanzo che cerca di scrivere, un romanzo che vuole sia, diversamente dal solito, del tutto inedito. Ogni mattina cerca di attaccare bottone con la ragazza con scarsi risultati, ...........................



A young writer tries to impress a girl he meets online with an embellished profile, but he finds himself in a real mess when she falls for him and he has to keep up the act..........














[spoiler]
General
Complete name                            : A Case Of You (2013).ita.eng.sub.ita.MIRCrew\A Case Of You (2013).ita.eng.sub.ita.MIRCrew.avi
Format                                   : AVI
Format/Info                              : Audio Video Interleave
File size                                : 1.54 GiB
Duration                                 : 1h 31mn
Overall bit rate                         : 2 410 Kbps
Movie name                               : MIRCrew by robbyrs
Writing application                      : VirtualDubMod 1.5.10.2 (build 2540/release)
Writing library                          : VirtualDubMod build 2540/release

Video
ID                                       : 0
Format                                   : MPEG-4 Visual
Format profile                           : Simple@L3
Format settings, BVOP                    : No
Format settings, QPel                    : No
Format settings, GMC                     : No warppoints
Format settings, Matrix                  : Default (H.263)
Codec ID                                 : XVID
Codec ID/Hint                            : XviD
Duration                                 : 1h 31mn
Bit rate                                 : 1 500 Kbps
Width                                    : 716 pixels
Height                                   : 300 pixels
Display aspect ratio                     : 2.40:1
Frame rate                               : 24.000 fps
Color space                              : YUV
Chroma subsampling                       : 4:2:0
Bit depth                                : 8 bits
Scan type                                : Progressive
Compression mode                         : Lossy
Bits/(Pixel*Frame)                       : 0.291
Stream size                              : 983 MiB (62%)
Writing library                          : XviD 64

Audio #1
ID                                       : 1
Format                                   : AC-3
Format/Info                              : Audio Coding 3
Mode extension                           : CM (complete main)
Codec ID                                 : 2000
Duration                                 : 1h 31mn
Bit rate mode                            : Constant
Bit rate                                 : 448 Kbps
Channel(s)                               : 6 channels
Channel positions                        : Front: L C R, Side: L R, LFE
Sampling rate                            : 48.0 KHz
Bit depth                                : 16 bits
Compression mode                         : Lossy
Stream size                              : 293 MiB (19%)
Alignment                                : Split accross interleaves
Interleave, duration                     : 42 ms (1.00 video frame)
Interleave, preload duration             : 500 ms

Audio #2
ID                                       : 2
Format                                   : AC-3
Format/Info                              : Audio Coding 3
Mode extension                           : CM (complete main)
Codec ID                                 : 2000
Duration                                 : 1h 31mn
Bit rate mode                            : Constant
Bit rate                                 : 448 Kbps
Channel(s)                               : 6 channels
Channel positions                        : Front: L C R, Side: L R, LFE
Sampling rate                            : 48.0 KHz
Bit depth                                : 16 bits
Compression mode                         : Lossy
Stream size                              : 293 MiB (19%)
Alignment                                : Split accross interleaves
Interleave, duration                     : 42 ms (1.00 video frame)
Interleave, preload duration             : 500 ms



[/spoiler]

[/center]
Info: Per scaricare devi usare un client come uTorrent, o Azureus
AnnounceURL
udp://open.demonii.com:1337/announce
Hash b1ebc3e41af87b211a7f4e736b6f45c4cbbec7cf
Peers seeds: 86 , leech: 69
Size 1.54 GB
Completato 1233x
Aggiunto 22.01.15 - 08:01:15
Uploader   robbyrs
Votazione (Voti: 0)


Condividi questo bittorrent:


html/blog:


bbcode/forum:


Tramite bookmarks:



Aggiungi Commento