* Dettagli Torrent   globale  | Commenti (0) 


- Under the Skin (2013).BRrip.XviD - Italian English Ac3 5.1 - Sub Ita Eng.MIRCrew -



Download via torrent:
                 
Categoria bittorrent DVDrip
Descrizione
Under the Skin (2013).BRrip.XviD - Italian English Ac3 5.1 - Sub Ita Eng.MIRCrew



[center]



NO FOUND ONLY ORIGINAL RELEASE


Under the Skin (2013)




 



Titolo originale Under the Skin
Lingua originale inglese
Paese di produzione Regno Unito, Stati Uniti
Anno 2013
Durata 108 min
Genere fantascienza
Regia Jonathan Glazer
Soggetto Michel Faber (romanzo)
Sceneggiatura Walter Campbell, Jonathan Glazer
Produttore James Wilson, Nick Wechsler
Co-produttori: Alexander O'Neal, Gillian Berrie
Produttore esecutivo Tessa Ross, Reno Antoniades, Walter Campbell, Claudia Bluemhuber, Ian Hutchinson, Florian Dargel
Casa di produzione Film4, FilmNation Entertainment, JW Films, Nick Wechsler Productions, Scottish Screen, UK Film Council, Silver Reel, Creative Scotland
Distribuzione (Italia) BiM Distribuzione
Fotografia Daniel Landin
Montaggio Paul Watts
Effetti speciali Mark Curtis (senior special effects supervisor)
Musiche Mica Levi
Scenografia Chris Oddy
Costumi Steven Noble
Trucco Chrissie Beveridge





   Scarlett Johansson: Laura
   Paul Brannigan: Andrew
   Jessica Mance: Alien
   Joe Szula:
   Krystof Hádek:
   Scott Dymond:


.

Un essere alieno prende il corpo di una giovane e attraente ragazza e inizia a girare attraverso la Scozia, attirando e seducendo vari uomini incontrati per strada. Una volta sedotti, i vari adulti vengono condotti in un ambiente onirico in cui, immersi in una sostanza scura, vengono intrappolati. Ad aiutare la ragazza, un altro essere alieno con le sembianze maschili che gira in motocicletta................



A mysterious woman seduces lonely men in the evening hours in Scotland. Events lead her to begin a process of self-discovery........
















[spoiler]
General
Complete name                            : Under the Skin (2013).ita.eng.sub.ita.eng.MIRCrew\Under the Skin (2013).ita.eng.sub.ita.eng.MIRCrew.avi
Format                                   : AVI
Format/Info                              : Audio Video Interleave
File size                                : 1.70 GiB
Duration                                 : 1h 48mn
Overall bit rate                         : 2 242 Kbps
Movie name                               : MIRCrew by robbyrs
Writing application                      : VirtualDubMod 1.5.10.2 (build 2540/release)
Writing library                          : VirtualDubMod build 2540/release

Video
ID                                       : 0
Format                                   : MPEG-4 Visual
Format profile                           : Simple@L3
Format settings, BVOP                    : No
Format settings, QPel                    : No
Format settings, GMC                     : No warppoints
Format settings, Matrix                  : Default (H.263)
Codec ID                                 : XVID
Codec ID/Hint                            : XviD
Duration                                 : 1h 48mn
Bit rate                                 : 1 333 Kbps
Width                                    : 720 pixels
Height                                   : 386 pixels
Display aspect ratio                     : 16:9
Frame rate                               : 23.976 fps
Color space                              : YUV
Chroma subsampling                       : 4:2:0
Bit depth                                : 8 bits
Scan type                                : Progressive
Compression mode                         : Lossy
Bits/(Pixel*Frame)                       : 0.200
Stream size                              : 1.01 GiB (59%)
Writing library                          : XviD 64

Audio #1
ID                                       : 1
Format                                   : AC-3
Format/Info                              : Audio Coding 3
Mode extension                           : CM (complete main)
Codec ID                                 : 2000
Duration                                 : 1h 48mn
Bit rate mode                            : Constant
Bit rate                                 : 448 Kbps
Channel(s)                               : 6 channels
Channel positions                        : Front: L C R, Side: L R, LFE
Sampling rate                            : 48.0 KHz
Bit depth                                : 16 bits
Compression mode                         : Lossy
Stream size                              : 347 MiB (20%)
Alignment                                : Split accross interleaves
Interleave, duration                     : 42 ms (1.00 video frame)
Interleave, preload duration             : 500 ms

Audio #2
ID                                       : 2
Format                                   : AC-3
Format/Info                              : Audio Coding 3
Mode extension                           : CM (complete main)
Codec ID                                 : 2000
Duration                                 : 1h 48mn
Bit rate mode                            : Constant
Bit rate                                 : 448 Kbps
Channel(s)                               : 6 channels
Channel positions                        : Front: L C R, Side: L R, LFE
Sampling rate                            : 48.0 KHz
Bit depth                                : 16 bits
Compression mode                         : Lossy
Stream size                              : 347 MiB (20%)
Alignment                                : Split accross interleaves
Interleave, duration                     : 42 ms (1.00 video frame)
Interleave, preload duration             : 500 ms


[/spoiler]

[/center]
Info: Per scaricare devi usare un client come uTorrent, o Azureus
AnnounceURL
udp://open.demonii.com:1337/announce
Hash c738e43d964354d1d996e0fe04e0f176bec776e9
Peers seeds: 284 , leech: 189
Size 1.70 GB
Completato 1453x
Aggiunto 30.01.15 - 13:01:32
Uploader   robbyrs
Votazione (Voti: 0)


Condividi questo bittorrent:


html/blog:


bbcode/forum:


Tramite bookmarks:



Aggiungi Commento