* Dettagli Torrent   globale  | Commenti (0) 


- Garfield Il Film - The Movie (2004).BRrip.XviD - Italian English Ac3 5.1.Sub Eng Fre.MIRCrew -



Download via torrent:
                 
Categoria bittorrent DVD
Descrizione
Garfield  The Movie- Il Film (2004).BRrip.XviD - Italian English Ac3 5.1.Sub Eng Fre.MIRCrew


Garfield Il Film - The Movie (2004).BRrip.XviD - Italian English Ac3 5.1.Sub Eng Fre.MIRCrew



[center]



NO FOUND ONLY ORIGINAL RELEASE


Garfield Il Film - The Movie (2004)




 



Titolo originale Garfield: The Movie
Paese di produzione USA
Anno 2004
Durata 77 minuti
Genere commedia, animazione
Regia Peter Hewitt
Soggetto Jim Davis (Comic strip)
Sceneggiatura Joel Cohen, Alec Sokolow
Produttore John Davis, Brian Manis (co-produttore), Michele Imperato Stabile (co-produttore)
Produttore esecutivo Neil A. Machlis
Casa di produzione Davis Entertainment
Distribuzione (Italia) 20th Century Fox
Art director Suttrat Larlarb
Fotografia Dean Cundey
Montaggio Peter Berger, Michael A. Stevenson
Musiche Christophe Beck
Costumi Marie France




   Breckin Meyer: Jon Arbuckle
   Jennifer Love Hewitt: Liz Wilson
   Stephen Tobolowsky: Felice Chapman
   Evan Arnold: Wendell
   Mark Christopher Lawrence: Christopher Mello
   Vanessa Christelle: Miss Ace Hardware
   Eve Brent: Signora Baker
   Bill Hoag: Roy
   Juliette Goglia: bambina
   Annalea Rawicz: ragazza delle informazioni
   Jim Davis: Ubriaco alla Convention


.

In una citt dell'Indiana (Stati Uniti d'America), Garfield un gatto adulto viziato e coccolato sin da cucciolo dal padrone fumettista Jon Arbuckle che lo mette al centro della sua attenzione, anche perch il gatto golosissimo di lasagne e guarda spesso in televisione il canale 37 ripreso ad un negozio di animali, alla Telegraph Tower, condotto da Felice Chapman, un uomo senza scrupoli che, da quando divorziato.............



Jon Arbuckle buys a second pet, a dog named Odie. However, Odie is then abducted and it is up to Jon's cat, Garfield, to find and rescue the canine............
















[spoiler]
General
Complete name                            : Garfield Il Film - The Movie (2004).ita.eng.sub.ita.eng.MIRCrew\Garfield Il Film - The Movie (2004).ita.eng.sub.ita.eng.MIRCrew.avi
Format                                   : AVI
Format/Info                              : Audio Video Interleave
File size                                : 1.35 GiB
Duration                                 : 1h 20mn
Overall bit rate                         : 2 409 Kbps
Movie name                               : MIRCrew by robbyrs
Writing application                      : VirtualDubMod 1.5.10.2 (build 2540/release)
Writing library                          : VirtualDubMod build 2540/release

Video
ID                                       : 0
Format                                   : MPEG-4 Visual
Format profile                           : [email protected]
Format settings, BVOP                    : No
Format settings, QPel                    : No
Format settings, GMC                     : No warppoints
Format settings, Matrix                  : Default (H.263)
Codec ID                                 : XVID
Codec ID/Hint                            : XviD
Duration                                 : 1h 20mn
Bit rate                                 : 1 499 Kbps
Width                                    : 720 pixels
Height                                   : 386 pixels
Display aspect ratio                     : 16:9
Frame rate                               : 23.976 fps
Color space                              : YUV
Chroma subsampling                       : 4:2:0
Bit depth                                : 8 bits
Scan type                                : Progressive
Compression mode                         : Lossy
Bits/(Pixel*Frame)                       : 0.225
Stream size                              : 860 MiB (62%)
Writing library                          : XviD 64

Audio #1
ID                                       : 1
Format                                   : AC-3
Format/Info                              : Audio Coding 3
Mode extension                           : CM (complete main)
Codec ID                                 : 2000
Duration                                 : 1h 20mn
Bit rate mode                            : Constant
Bit rate                                 : 448 Kbps
Channel(s)                               : 6 channels
Channel positions                        : Front: L C R, Side: L R, LFE
Sampling rate                            : 48.0 KHz
Bit depth                                : 16 bits
Compression mode                         : Lossy
Stream size                              : 257 MiB (19%)
Alignment                                : Split accross interleaves
Interleave, duration                     : 42 ms (1.00 video frame)
Interleave, preload duration             : 500 ms

Audio #2
ID                                       : 2
Format                                   : AC-3
Format/Info                              : Audio Coding 3
Mode extension                           : CM (complete main)
Codec ID                                 : 2000
Duration                                 : 1h 20mn
Bit rate mode                            : Constant
Bit rate                                 : 448 Kbps
Channel(s)                               : 6 channels
Channel positions                        : Front: L C R, Side: L R, LFE
Sampling rate                            : 48.0 KHz
Bit depth                                : 16 bits
Compression mode                         : Lossy
Stream size                              : 257 MiB (19%)
Alignment                                : Split accross interleaves
Interleave, duration                     : 42 ms (1.00 video frame)
Interleave, preload duration             : 500 ms



[/spoiler]

[/center]
Info: Per scaricare devi usare un client come uTorrent, o Azureus
AnnounceURL
udp://open.demonii.com:1337/announce
Hash 13ccbc01ce0fad6ed985d110194c3d6dd6f13cbc
Peers seeds: 37 , leech: 10
Size 1.35 GB
Completato 252x
Aggiunto 31.01.15 - 10:01:58
Uploader   robbyrs
Votazione (Voti: 0)


Condividi questo bittorrent:


html/blog:


bbcode/forum:


Tramite bookmarks:



Aggiungi Commento